(Baroque oratorio) Handel - Messiah / Гендель - Мессия (Bryn Terfel, Della Jones, Joan Rodgers / Collegium Musicum 90, Richard Hickox) - 1991, FLAC (image+.cue) lossless


Статистика раздачи [Обновить пиров]
Размер:  646 MB   |    Зарегистрирован:  1 год 1 месяц   |    Скачан:  1 раз

Полного источника не было: 4 месяца 11 дней

 
   
 
 
 

[Цитировать]

Handel - Messiah / Гендель - Мессия

Жанр: Baroque oratorio
Страна-производитель диска: Made in England
Год издания диска: 1991
Издатель (лейбл): Chandos
Номер по каталогу: CHAN 0522/3
Дата записи: 1991
Аудиокодек: FLAC
Тип рипа: image+.cue
Битрейт аудио: lossless
Продолжительность: 75'27 + 65'24 / Total 140:51
Источник: релизер
сайт-источник/ник/другое: Cunctator and Meeting in Music blogspot
Наличие сканов в содержимом раздачи: да
Треклист:

скрытый текст

Disc 1:

скрытый текст

FIRST PART
1. Messiah, HWV 56: Symphony 3:10
2. Accompagnato: Comfort ye (Tenor) 2:49
3. Air: Ev'ry valley (Tenor) 3:05
4. And the glory (Chorus) 2:48
5. Accompagnato: Thus said the Lord (Bass) 1:25
6. Air: But who may abide? (Counter-tenor) 4:21
7. And He shall purify (Chorus) 2:17
8. Recitative: Behold, a virgin (Alto) 0:26
9. Air: O thou that tellest (Alto) 5:24
10. Accompagnato: For behold, darkness (Bass) 2:00
11. Air: The people that walked (Bass) 3:39
12. Messiah, HWV 56: For unto us (Chorus) 3:54
13. Pastoral Symphony 0:56
14. Recitative: There were shepherds (Soprano) 0:12
15. Accompagnato: And lo, the angel of the Lord (Soprano) 0:19
16. Recitative: And the angel said unto them (Soprano) 0:30
17. Accompagnato: And suddenly (Soprano) 0:18
18. Glory to God (Chorus) 1:57
19. Air: Rejoice greatly (Soprano) 4:16
20. Recitative: Then shall the eyes (Alto) 0:26
21. Air: And He shall feed his flock (Alto) 5:08
22. His yoke is easy (Chorus) 2:15
SECOND PART
23. Behold the Land of God (Chorus) 3:31
24. Air: He was despised (Alto) 12:21
25. Surely, He hath borne (Chorus) 2:02
26. And with His stripes (Chorus) 2:06
27. All we like sheep (Chorus) 3:48
Disc 2:

скрытый текст

SECOND PART (continued)
1. Accompagnato: All they that see Him (Tenor) 0:47
2. He trusted in God (Chorus) 2:05
3. Accompagnato: Thy rebuke hath broken His heart (Tenor) 1:31
4. Air: Behold, and see (Tenor) 1:17
5. Accompagnato: He was cut off (Tenor) 0:13
6. Air: But Thou didst not leave (Tenor) 2:04
7. Lift up your heads (Chorus) 3:06
8. Recitative: Unto which of the angels (Tenor) 0:12
9. Let all the angels (Chorus) 1:31
10. Air: Thou art gone up on high (Counter-tenor) 3:05
11. The Lord gave the word (Chorus) 1:09
12. Air: How beautiful are the feet (Soprano) 2:19
13. Their sound is gone out (Chorus) 1:30
14. Air: Why do the nations (Bass) 2:43
15. Let us break their bonds asunder (Chorus) 1:41
16. Recitative: He that dwelleth in heaven (Tenor) 0:10
17. Air: Thou shalt break them (Tenor) 2:01
18. Hallelujah (Chorus) 3:55
THIRD PART
19. Air: I know that my redeemer liveth (Soprano) 5:56
20. Since by man came death (Chorus) 2:19
21. Accompagnato: Behold, I tell you a mystery (Bass) 0:39
22. Air: The trumpet shall sound (Bass) 8:58
23. Air: Then shall be brought to pass (Counter-tenor) 0:15
24. Duet: O death, where is thy sting (Counter-tenor, Tenor) 1:04
25. But thanks be to God (Chorus) 2:14
26. Air: If God be for us (Soprano) 4:49
27. Worthy is the Lamb (Chorus) 7:44
Исполнители:

скрытый текст

George Frideric Handel (1685-1759)
Messiah, HWV 56
Оратория в трёх частях
Joan Rodgers, soprano
Della Jones, mezzo-soprano
Christopher Robson, counter-tenor
Philip Langridge, tenor
Bryn Terfel, bass-baritone
Collegium Musicum 90
Richard Hickox, conductor
Recorded in:
St Jude on the Hill, Hampstead, London
11-17 January 1991
Producer(s)
Tim Oldham
Sound Engineer(s)
Richard Lee
Peter Sheldon (Assistant)
Format: Digital CD 16Bit 44.1Khz
Originally recorded in: 24Bit 96Khz

Лог создания рипа

CD1

скрытый текст

Exact Audio Copy V1.0 beta 3 from 29. August 2011
EAC extraction logfile from 9. January 2015, 22:11
Collegium Musicum 90, Richard Hickox / Handel - Messiah (CD 1)
Used drive : MATSHITADVD-RAM UJ8C2 S Adapter: 0 ID: 0
Read mode : Secure
Utilize accurate stream : Yes
Defeat audio cache : Yes
Make use of C2 pointers : No
Read offset correction : 103
Overread into Lead-In and Lead-Out : No
Fill up missing offset samples with silence : Yes
Delete leading and trailing silent blocks : No
Null samples used in CRC calculations : Yes
Used interface : Native Win32 interface for Win NT & 2000
Used output format : User Defined Encoder
Selected bitrate : 768 kBit/s
Quality : High
Add ID3 tag : No
Command line compressor : C:\Program Files (x86)\Exact Audio Copy\FLAC\FLAC.EXE
Additional command line options : -8 -V -T "ARTIST=%artist%" -T "TITLE=%title%" -T "ALBUM=%albumtitle%" -T "DATE=%year%" -T "TRACKNUMBER=%tracknr%" -T "GENRE=%genre%" -T "PERFORMER=%albuminterpret%" -T "COMPOSER=%composer%" %haslyrics%--tag-from-file=LYRICS="%lyricsfile%"%haslyrics% -T "ALBUMARTIST=%albumartist%" -T "DISCNUMBER=%cdnumber%" -T "TOTALDISCS=%totalcds%" -T "TOTALTRACKS=%numtracks%" -T "COMMENT=%comment%" %source% -o %dest%
TOC of the extracted CD
Track | Start | Length | Start sector | End sector
---------------------------------------------------------
1 | 0:00.00 | 3:10.00 | 0 | 14249
2 | 3:10.00 | 2:49.60 | 14250 | 26984
3 | 5:59.60 | 3:05.42 | 26985 | 40901
4 | 9:05.27 | 2:47.68 | 40902 | 53494
5 | 11:53.20 | 1:24.45 | 53495 | 59839
6 | 13:17.65 | 4:21.10 | 59840 | 79424
7 | 17:39.00 | 2:17.65 | 79425 | 89764
8 | 19:56.65 | 0:26.35 | 89765 | 91749
9 | 20:23.25 | 5:24.00 | 91750 | 116049
10 | 25:47.25 | 1:59.67 | 116050 | 125041
11 | 27:47.17 | 3:39.10 | 125042 | 141476
12 | 31:26.27 | 3:54.13 | 141477 | 159039
13 | 35:20.40 | 0:55.70 | 159040 | 163234
14 | 36:16.35 | 0:12.05 | 163235 | 164139
15 | 36:28.40 | 0:19.17 | 164140 | 165581
16 | 36:47.57 | 0:30.10 | 165582 | 167841
17 | 37:17.67 | 0:17.53 | 167842 | 169169
18 | 37:35.45 | 1:56.60 | 169170 | 177929
19 | 39:32.30 | 4:15.52 | 177930 | 197106
20 | 43:48.07 | 0:26.18 | 197107 | 199074
21 | 44:14.25 | 5:08.50 | 199075 | 222224
22 | 49:23.00 | 2:15.00 | 222225 | 232349
23 | 51:38.00 | 3:31.10 | 232350 | 248184
24 | 55:09.10 | 12:21.37 | 248185 | 303796
25 | 67:30.47 | 2:02.25 | 303797 | 312971
26 | 69:32.72 | 2:06.33 | 312972 | 322454
27 | 71:39.30 | 3:47.70 | 322455 | 339549
Range status and errors
Selected range
Filename D:\Handel - Messiah (CD 1) - Hickox.wav
Peak level 88.8 %
Extraction speed 4.4 X
Range quality 100.0 %
Test CRC 4AB1252B
Copy CRC 4AB1252B
Copy OK
No errors occurred
AccurateRip summary
Track 1 not present in database
Track 2 not present in database
Track 3 not present in database
Track 4 not present in database
Track 5 not present in database
Track 6 not present in database
Track 7 not present in database
Track 8 not present in database
Track 9 not present in database
Track 10 not present in database
Track 11 not present in database
Track 12 not present in database
Track 13 not present in database
Track 14 not present in database
Track 15 not present in database
Track 16 not present in database
Track 17 not present in database
Track 18 not present in database
Track 19 not present in database
Track 20 not present in database
Track 21 not present in database
Track 22 not present in database
Track 23 not present in database
Track 24 not present in database
Track 25 not present in database
Track 26 not present in database
Track 27 not present in database
None of the tracks are present in the AccurateRip database
End of status report
---- CUETools DB Plugin V2.1.3
[CTDB TOCID: sUz.5cx_Cpb0Kg8ToCDB6Z8Kawg-] found, Submit result: sUz.5cx_Cpb0Kg8ToCDB6Z8Kawg- has been confirmed
[09f0bca4] (8/8) Accurately ripped
CD2

скрытый текст

Exact Audio Copy V1.0 beta 3 from 29. August 2011
EAC extraction logfile from 9. January 2015, 22:56
Collegium Musicum 90, Richard Hickox / Handel - Messiah (CD 2)
Used drive : MATSHITADVD-RAM UJ8C2 S Adapter: 0 ID: 0
Read mode : Secure
Utilize accurate stream : Yes
Defeat audio cache : Yes
Make use of C2 pointers : No
Read offset correction : 103
Overread into Lead-In and Lead-Out : No
Fill up missing offset samples with silence : Yes
Delete leading and trailing silent blocks : No
Null samples used in CRC calculations : Yes
Used interface : Native Win32 interface for Win NT & 2000
Used output format : User Defined Encoder
Selected bitrate : 768 kBit/s
Quality : High
Add ID3 tag : No
Command line compressor : C:\Program Files (x86)\Exact Audio Copy\FLAC\FLAC.EXE
Additional command line options : -8 -V -T "ARTIST=%artist%" -T "TITLE=%title%" -T "ALBUM=%albumtitle%" -T "DATE=%year%" -T "TRACKNUMBER=%tracknr%" -T "GENRE=%genre%" -T "PERFORMER=%albuminterpret%" -T "COMPOSER=%composer%" %haslyrics%--tag-from-file=LYRICS="%lyricsfile%"%haslyrics% -T "ALBUMARTIST=%albumartist%" -T "DISCNUMBER=%cdnumber%" -T "TOTALDISCS=%totalcds%" -T "TOTALTRACKS=%numtracks%" -T "COMMENT=%comment%" %source% -o %dest%
TOC of the extracted CD
Track | Start | Length | Start sector | End sector
---------------------------------------------------------
1 | 0:00.00 | 0:47.30 | 0 | 3554
2 | 0:47.30 | 2:05.12 | 3555 | 12941
3 | 2:52.42 | 1:30.58 | 12942 | 19749
4 | 4:23.25 | 1:17.05 | 19750 | 25529
5 | 5:40.30 | 0:13.32 | 25530 | 26536
6 | 5:53.62 | 2:04.38 | 26537 | 35874
7 | 7:58.25 | 3:06.07 | 35875 | 49831
8 | 11:04.32 | 0:12.05 | 49832 | 50736
9 | 11:16.37 | 1:31.38 | 50737 | 57599
10 | 12:48.00 | 3:05.45 | 57600 | 71519
11 | 15:53.45 | 1:09.25 | 71520 | 76719
12 | 17:02.70 | 2:18.60 | 76720 | 87129
13 | 19:21.55 | 1:30.20 | 87130 | 93899
14 | 20:52.00 | 2:43.55 | 93900 | 106179
15 | 23:35.55 | 1:41.45 | 106180 | 113799
16 | 25:17.25 | 0:10.32 | 113800 | 114581
17 | 25:27.57 | 2:01.28 | 114582 | 123684
18 | 27:29.10 | 3:55.20 | 123685 | 141329
19 | 31:24.30 | 5:56.30 | 141330 | 168059
20 | 37:20.60 | 2:19.10 | 168060 | 178494
21 | 39:39.70 | 0:38.72 | 178495 | 181416
22 | 40:18.67 | 8:58.58 | 181417 | 221824
23 | 49:17.50 | 0:15.02 | 221825 | 222951
24 | 49:32.52 | 1:03.70 | 222952 | 227746
25 | 50:36.47 | 2:14.23 | 227747 | 237819
26 | 52:50.70 | 4:48.70 | 237820 | 259489
27 | 57:39.65 | 7:44.35 | 259490 | 294324
Range status and errors
Selected range
Filename D:\Handel - Messiah (CD 2) - Hickox.wav
Peak level 98.0 %
Extraction speed 3.4 X
Range quality 99.9 %
Test CRC FB309E43
Copy CRC FB309E43
Copy OK
No errors occurred
AccurateRip summary
Track 1 accurately ripped (confidence 6) [CAF2C899] (AR v2)
Track 2 accurately ripped (confidence 6) [C7E0FA8A] (AR v2)
Track 3 accurately ripped (confidence 5) [7D44AC1A] (AR v2)
Track 4 accurately ripped (confidence 6) [A75D84BD] (AR v2)
Track 5 accurately ripped (confidence 6) [38B67152] (AR v2)
Track 6 accurately ripped (confidence 6) [D12DFB9B] (AR v2)
Track 7 accurately ripped (confidence 6) [8CA193C3] (AR v2)
Track 8 accurately ripped (confidence 5) [EAA6DBEA] (AR v2)
Track 9 accurately ripped (confidence 5) [5952E72E] (AR v2)
Track 10 accurately ripped (confidence 5) [3F7949CA] (AR v2)
Track 11 accurately ripped (confidence 6) [4C6B4020] (AR v2)
Track 12 accurately ripped (confidence 5) [9B7AAE8F] (AR v2)
Track 13 accurately ripped (confidence 5) [C2920FDA] (AR v2)
Track 14 accurately ripped (confidence 6) [8E76C81B] (AR v2)
Track 15 accurately ripped (confidence 6) [57A9B989] (AR v2)
Track 16 accurately ripped (confidence 6) [95CC491D] (AR v2)
Track 17 accurately ripped (confidence 6) [B29D90EA] (AR v2)
Track 18 accurately ripped (confidence 6) [BD5CE18D] (AR v2)
Track 19 accurately ripped (confidence 6) [A6134FF8] (AR v2)
Track 20 accurately ripped (confidence 5) [4BD2247B] (AR v2)
Track 21 accurately ripped (confidence 6) [ADBA04FD] (AR v2)
Track 22 accurately ripped (confidence 6) [587D5DA0] (AR v2)
Track 23 accurately ripped (confidence 6) [4493ADC8] (AR v2)
Track 24 accurately ripped (confidence 6) [3F990F1A] (AR v2)
Track 25 accurately ripped (confidence 6) [D7692B8D] (AR v2)
Track 26 accurately ripped (confidence 5) [1DA6B40A] (AR v2)
Track 27 accurately ripped (confidence 4) [54499A35] (AR v2)
All tracks accurately ripped
End of status report
---- CUETools DB Plugin V2.1.3
[CTDB TOCID: o_5BYVL.gtEB_C6ibdRKkmTmtMY-] found, Submit result: o_5BYVL.gtEB_C6ibdRKkmTmtMY- has been confirmed
[9ee596d4] (4/5) Accurately ripped
[f4ad3ff7] (1/5) No match

Содержание индексной карты (.CUE)

CD1

скрытый текст

REM GENRE Oratorio
REM DATE 1991
REM DISCID 7B11AF1B
REM COMMENT "ExactAudioCopy v1.0b3"
PERFORMER "Collegium Musicum 90, Richard Hickox"
TITLE "Handel - Messiah (CD 1)"
FILE "Handel - Messiah (CD 1) - Hickox.flac" WAVE
TRACK 01 AUDIO
TITLE "Sinfony"
PERFORMER "Collegium Musicum 90, Richard Hickox"
INDEX 01 00:00:00
TRACK 02 AUDIO
TITLE "Comfort Ye"
PERFORMER "Collegium Musicum 90, Richard Hickox"
INDEX 00 03:08:25
INDEX 01 03:10:00
TRACK 03 AUDIO
TITLE "Ev'ry Valley"
PERFORMER "Collegium Musicum 90, Richard Hickox"
INDEX 01 05:59:60
TRACK 04 AUDIO
TITLE "And The Glory"
PERFORMER "Collegium Musicum 90, Richard Hickox"
INDEX 01 09:05:27
TRACK 05 AUDIO
TITLE "Thus Saith The Lord"
PERFORMER "Collegium Musicum 90, Richard Hickox"
INDEX 00 11:52:25
INDEX 01 11:53:20
TRACK 06 AUDIO
TITLE "But Who May Abide?"
PERFORMER "Collegium Musicum 90, Richard Hickox"
INDEX 01 13:17:65
TRACK 07 AUDIO
TITLE "And He Shall Purify"
PERFORMER "Collegium Musicum 90, Richard Hickox"
INDEX 01 17:39:00
TRACK 08 AUDIO
TITLE "Behold, A Virgin"
PERFORMER "Collegium Musicum 90, Richard Hickox"
INDEX 00 19:54:25
INDEX 01 19:56:65
TRACK 09 AUDIO
TITLE "O Thou That Tellest"
PERFORMER "Collegium Musicum 90, Richard Hickox"
INDEX 01 20:23:25
TRACK 10 AUDIO
TITLE "For Behold, Darkness"
PERFORMER "Collegium Musicum 90, Richard Hickox"
INDEX 00 25:44:25
INDEX 01 25:47:25
TRACK 11 AUDIO
TITLE "The People That Walked"
PERFORMER "Collegium Musicum 90, Richard Hickox"
INDEX 01 27:47:17
TRACK 12 AUDIO
TITLE "For Unto Us"
PERFORMER "Collegium Musicum 90, Richard Hickox"
INDEX 01 31:26:27
TRACK 13 AUDIO
TITLE "Pastoral Symphony"
PERFORMER "Collegium Musicum 90, Richard Hickox"
INDEX 00 35:15:25
INDEX 01 35:20:40
TRACK 14 AUDIO
TITLE "There Were Shepherds"
PERFORMER "Collegium Musicum 90, Richard Hickox"
INDEX 01 36:16:35
TRACK 15 AUDIO
TITLE "And Lo, The Angel Of The Lord"
PERFORMER "Collegium Musicum 90, Richard Hickox"
INDEX 01 36:28:40
TRACK 16 AUDIO
TITLE "And The Angel Said Unto Them"
PERFORMER "Collegium Musicum 90, Richard Hickox"
INDEX 01 36:47:57
TRACK 17 AUDIO
TITLE "And Suddenly"
PERFORMER "Collegium Musicum 90, Richard Hickox"
INDEX 01 37:17:67
TRACK 18 AUDIO
TITLE "Glory To God"
PERFORMER "Collegium Musicum 90, Richard Hickox"
INDEX 01 37:35:45
TRACK 19 AUDIO
TITLE "Rejoice Greatly"
PERFORMER "Collegium Musicum 90, Richard Hickox"
INDEX 00 39:31:25
INDEX 01 39:32:30
TRACK 20 AUDIO
TITLE "Then Shall The Eyes"
PERFORMER "Collegium Musicum 90, Richard Hickox"
INDEX 00 43:47:25
INDEX 01 43:48:07
TRACK 21 AUDIO
TITLE "And He Shall Feed His Flock"
PERFORMER "Collegium Musicum 90, Richard Hickox"
INDEX 01 44:14:25
TRACK 22 AUDIO
TITLE "His Yoke Is Easy"
PERFORMER "Collegium Musicum 90, Richard Hickox"
INDEX 01 49:23:00
TRACK 23 AUDIO
TITLE "Behold The Lamb Of God"
PERFORMER "Collegium Musicum 90, Richard Hickox"
INDEX 00 51:30:25
INDEX 01 51:38:00
TRACK 24 AUDIO
TITLE "He Was Despised"
PERFORMER "Collegium Musicum 90, Richard Hickox"
INDEX 00 55:05:25
INDEX 01 55:09:10
TRACK 25 AUDIO
TITLE "Surely, He Hath Borne"
PERFORMER "Collegium Musicum 90, Richard Hickox"
INDEX 00 67:27:50
INDEX 01 67:30:47
TRACK 26 AUDIO
TITLE "And With His Stripes"
PERFORMER "Collegium Musicum 90, Richard Hickox"
INDEX 01 69:32:72
TRACK 27 AUDIO
TITLE "All We Like Sheep"
PERFORMER "Collegium Musicum 90, Richard Hickox"
INDEX 01 71:39:30
CD1

скрытый текст

REM GENRE Oratorio
REM DATE 1991
REM DISCID 7B0F541B
REM COMMENT "ExactAudioCopy v1.0b3"
PERFORMER "Collegium Musicum 90, Richard Hickox"
TITLE "Handel - Messiah (CD 2)"
FILE "Handel - Messiah (CD 2) - Hickox.flac" WAVE
TRACK 01 AUDIO
TITLE "All They That See Him"
PERFORMER "Collegium Musicum 90, Richard Hickox"
INDEX 01 00:00:00
TRACK 02 AUDIO
TITLE "He Trusted In God"
PERFORMER "Collegium Musicum 90, Richard Hickox"
INDEX 01 00:47:30
TRACK 03 AUDIO
TITLE "Thy Rebuke Hath Broken His Heart"
PERFORMER "Collegium Musicum 90, Richard Hickox"
INDEX 01 02:52:42
TRACK 04 AUDIO
TITLE "Behold, And See"
PERFORMER "Collegium Musicum 90, Richard Hickox"
INDEX 01 04:23:25
TRACK 05 AUDIO
TITLE "He Was Cut Off"
PERFORMER "Collegium Musicum 90, Richard Hickox"
INDEX 01 05:40:30
TRACK 06 AUDIO
TITLE "But Thou Didst Not Leave"
PERFORMER "Collegium Musicum 90, Richard Hickox"
INDEX 01 05:53:62
TRACK 07 AUDIO
TITLE "Lift Up Your Heads"
PERFORMER "Collegium Musicum 90, Richard Hickox"
INDEX 01 07:58:25
TRACK 08 AUDIO
TITLE "Unto Which Of The Angels"
PERFORMER "Collegium Musicum 90, Richard Hickox"
INDEX 01 11:04:32
TRACK 09 AUDIO
TITLE "Let All The Angels"
PERFORMER "Collegium Musicum 90, Richard Hickox"
INDEX 01 11:16:37
TRACK 10 AUDIO
TITLE "Thou Art Gone Up On High"
PERFORMER "Collegium Musicum 90, Richard Hickox"
INDEX 01 12:48:00
TRACK 11 AUDIO
TITLE "The Lord Gave The Word"
PERFORMER "Collegium Musicum 90, Richard Hickox"
INDEX 01 15:53:45
TRACK 12 AUDIO
TITLE "How Beautiful Are The Feet"
PERFORMER "Collegium Musicum 90, Richard Hickox"
INDEX 01 17:02:70
TRACK 13 AUDIO
TITLE "Their Sound Is Gone Out"
PERFORMER "Collegium Musicum 90, Richard Hickox"
INDEX 01 19:21:55
TRACK 14 AUDIO
TITLE "Why Do The Nations"
PERFORMER "Collegium Musicum 90, Richard Hickox"
INDEX 01 20:52:00
TRACK 15 AUDIO
TITLE "Let Us Break Their Bonds Asunder"
PERFORMER "Collegium Musicum 90, Richard Hickox"
INDEX 01 23:35:55
TRACK 16 AUDIO
TITLE "He That Dwelleth In Heaven"
PERFORMER "Collegium Musicum 90, Richard Hickox"
INDEX 01 25:17:25
TRACK 17 AUDIO
TITLE "Thou Shalt Break Them"
PERFORMER "Collegium Musicum 90, Richard Hickox"
INDEX 01 25:27:57
TRACK 18 AUDIO
TITLE "Hallelujah"
PERFORMER "Collegium Musicum 90, Richard Hickox"
INDEX 01 27:29:10
TRACK 19 AUDIO
TITLE "I Know That My Redeemer Liveth"
PERFORMER "Collegium Musicum 90, Richard Hickox"
INDEX 00 31:20:25
INDEX 01 31:24:30
TRACK 20 AUDIO
TITLE "Since By Man Came Death"
PERFORMER "Collegium Musicum 90, Richard Hickox"
INDEX 00 37:19:25
INDEX 01 37:20:60
TRACK 21 AUDIO
TITLE "Behold, I Tell You A Mystery"
PERFORMER "Collegium Musicum 90, Richard Hickox"
INDEX 00 39:38:25
INDEX 01 39:39:70
TRACK 22 AUDIO
TITLE "The Trumpet Shall Sound"
PERFORMER "Collegium Musicum 90, Richard Hickox"
INDEX 01 40:18:67
TRACK 23 AUDIO
TITLE "Then Shall Be Brought To Pass"
PERFORMER "Collegium Musicum 90, Richard Hickox"
INDEX 00 49:16:25
INDEX 01 49:17:50
TRACK 24 AUDIO
TITLE "O Death, Where Is Thy Sting"
PERFORMER "Collegium Musicum 90, Richard Hickox"
INDEX 01 49:32:52
TRACK 25 AUDIO
TITLE "But Thanks Be To God"
PERFORMER "Collegium Musicum 90, Richard Hickox"
INDEX 01 50:36:47
TRACK 26 AUDIO
TITLE "If God Be For Us"
PERFORMER "Collegium Musicum 90, Richard Hickox"
INDEX 00 52:50:25
INDEX 01 52:50:70
TRACK 27 AUDIO
TITLE "Worthy Is The Lamb"
PERFORMER "Collegium Musicum 90, Richard Hickox"
INDEX 00 57:38:25
INDEX 01 57:39:65
[teatrix.ru].t7869.torrent 
Торрент: Зарегистрирован [ 2015-10-14 02:42 ] · 5C53657CE779FC19A37B532F2509A02B2AB1AE62

Скачать .torrent

Скачать

15 KB

Статус: проверено
Скачан: 1 раз
Размер: 646 MB
terms.php



Быстрый ответ

Имя:

      
Для отправки сообщений необходимо включить JavaScript
Показать сообщения:    

Текущее время: 03-Дек 18:40

Часовой пояс: UTC + 3


Вы можете начинать темы
Вы можете отвечать на сообщения
Вы не можете редактировать свои сообщения
Вы не можете удалять свои сообщения
Вы не можете голосовать в опросах
Вы не можете прикреплять файлы к сообщениям
Вы можете скачивать файлы