(Classical) Claudio Monteverdi - Madrigals of Love and Loss - Arcangelo, Jonathan Cohen, James Gilchrist - 2014, FLAC (image+.cue) lossless


Статистика раздачи [Обновить пиров]
Размер:  319 MB   |    Зарегистрирован:  1 год 1 месяц   |    Скачан:  0 раз

Полного источника не было: Никогда

 
   
 
 
 

[Цитировать]

Claudio Monteverdi - Madrigals of Love and Loss - Arcangelo, Jonathan Cohen, James Gilchrist
Жанр: Classical
Страна-производитель диска: UK
Год издания диска: 2014
Издатель (лейбл): Hyperion
Номер по каталогу: CDA68019
Дата записи: 2013
Аудиокодек: FLAC
Тип рипа: image+.cue
Битрейт аудио: lossless
Продолжительность: 70:03
Источник: собственный рип
Наличие сканов в содержимом раздачи: да
Треклист:
Claudio Monteverdi (1567-1643)
[1]-[4] Ballo: Volgendo il ciel - Movete al mio bel suon Madrigals, Book 8
[5] Combattimento di Tancredi & Clorinda Madrigals, Book 8
[6] Or che 'l ciel & la terra e 'l vento tace Madrigals, Book 8
[7] Ohime, dov'e il mio ben, dov'e il mio core? Madrigals, Book 7
[8] Zefiro torna e 'l bel tempo rimena Madrigals, Book 6
[9] Ohime il bel viso, ohime il soave sguardo Madrigals, Book 6
[10]-[15] Sestina 'Lagrime d'amante al sepolcro dell'amata' Madrigals, Book 6
Исполнители:
James Gilchrist tenor ([5])
Arcangelo
Jonathan Cohen
director

Лог создания рипа

Exact Audio Copy V1.0 beta 3 from 29. August 2011
EAC extraction logfile from 12. October 2014, 3:08
Arcangelo, Jonathan Cohen / Monteverdi - Madrigals of Love and Loss
Used drive : HL-DT-STDVDRAM GU70N Adapter: 0 ID: 0
Read mode : SecureUtilize accurate stream : YesDefeat audio cache : YesMake use of C2 pointers : No
Read offset correction : 48Overread into Lead-In and Lead-Out : NoFill up missing offset samples with silence : YesDelete leading and trailing silent blocks : NoNull samples used in CRC calculations : YesUsed interface : Native Win32 interface for Win NT & 2000
Used output format : User Defined EncoderSelected bitrate : 128 kBit/sQuality : HighAdd ID3 tag : NoCommand line compressor : C:\Program Files (x86)\Exact Audio Copy\Flac\flac.exeAdditional command line options : -V -8 -T "Date=%year%" -T "Genre=%genre%" %source%
TOC of the extracted CD
Track | Start | Length | Start sector | End sector --------------------------------------------------------- 1 | 0:00.00 | 5:42.12 | 0 | 25661 2 | 5:42.12 | 2:02.35 | 25662 | 34846 3 | 7:44.47 | 3:04.08 | 34847 | 48654 4 | 10:48.55 | 2:02.72 | 48655 | 57876 5 | 12:51.52 | 20:03.17 | 57877 | 148118 6 | 32:54.69 | 8:12.69 | 148119 | 185087 7 | 41:07.63 | 5:14.32 | 185088 | 208669 8 | 46:22.20 | 3:45.59 | 208670 | 225603 9 | 50:08.04 | 4:21.42 | 225604 | 245220 10 | 54:29.46 | 2:24.59 | 245221 | 256079 11 | 56:54.30 | 1:49.11 | 256080 | 264265 12 | 58:43.41 | 2:18.40 | 264266 | 274655 13 | 61:02.06 | 2:55.01 | 274656 | 287781 14 | 63:57.07 | 2:26.32 | 287782 | 298763 15 | 66:23.39 | 3:38.02 | 298764 | 315115
Range status and errors
Selected range
Filename C:\temp\CDA68019 - Monteverdi - Madrigals of Love and Loss\CD\Monteverdi - Madrigals of Love and Loss.wav
Peak level 100.0 % Extraction speed 5.3 X Range quality 100.0 % Test CRC A5BCC616 Copy CRC A5BCC616 Copy OK
No errors occurred
AccurateRip summary
Track 1 not present in databaseTrack 2 not present in databaseTrack 3 not present in databaseTrack 4 not present in databaseTrack 5 not present in databaseTrack 6 not present in databaseTrack 7 not present in databaseTrack 8 not present in databaseTrack 9 not present in databaseTrack 10 not present in databaseTrack 11 not present in databaseTrack 12 not present in databaseTrack 13 not present in databaseTrack 14 not present in databaseTrack 15 not present in database
None of the tracks are present in the AccurateRip database
End of status report
==== Log checksum 950B1FCD3D40682AD1363D9A3E23C2BB005F354A78CBA9C47A3396083342847D ====
[teatrix.ru].t7870.torrent 
Торрент: Зарегистрирован [ 2015-10-14 02:42 ] · BA37A85ADC5F2778E5580E690213F20C3EED5B7F

Скачать .torrent

Скачать

26 KB

Статус: проверено
Скачан: 0 раз
Размер: 319 MB
terms.php



Быстрый ответ

Имя:

      
Для отправки сообщений необходимо включить JavaScript
Показать сообщения:    

Текущее время: 11-Дек 07:16

Часовой пояс: UTC + 3


Вы можете начинать темы
Вы можете отвечать на сообщения
Вы не можете редактировать свои сообщения
Вы не можете удалять свои сообщения
Вы не можете голосовать в опросах
Вы не можете прикреплять файлы к сообщениям
Вы можете скачивать файлы