(Classical) Академический мужской хор МИФИ (Никольский, Шведов, Чесноков, Mozart, Verdi, Weber, Рубинштейн, Gounod, Римский-Корсаков, Чайковский, Соловьев-Седой, Блантер, Кюсс) - 2007, FLAC (image+.cue) lossless


Статистика раздачи [Обновить пиров]
Размер:  268 MB   |    Зарегистрирован:  1 год 1 месяц   |    Скачан:  0 раз

Полного источника не было: Никогда

 
   
 
 
 

[Цитировать]

Академический мужской хор Московского инженерно-физического института
Художественный руководитель и дирижер Надежда Малявина
Жанр: Classical
Страна-производитель диска: Россия
Год издания диска: 2007
Издатель (лейбл): Мужской хор МИФИ
Аудиокодек: FLAC
Тип рипа: image+.cue
Битрейт аудио: lossless
Продолжительность: 56:05
Источник: собственный рип
Наличие сканов в содержимом раздачи: да
Треклист:
01. А. Никольский. Господь просвещение мое
02. К. Шведов. Благослови, душе моя, Господа
03. П. Чесноков. Единородный Сыне
04. В.-А. Моцарт. Confutatis, Lacrimosa из Реквиема
05. Дж. Верди. Хор рабов из оперы 'Набукко'
06. К.-М. Вебер. Хор охотников из оперы 'Вольный стрелок'
07. А. Рубинштейн. Хор 'Ноченька' из оперы 'Демон'
08. Ш. Гуно. Хор солдат из оперы 'Фауст'
09. Н. Римский-Корсаков. Речитатив Левко и песня про Голову из оперы 'Майская ночь'
10. П. Чайковский (сл. А. Пушкина). Что смолкнул веселия глас?
11. П. Чайковский (сл. Л. Мея из Гете). Нет, только тот, кто знал
12. В. Соловьев-Седой (сл. М. Матусовского). Баллада о солдате
13. М. Блантер (сл. М. Исаковского). В лесу прифронтовом
14. Русская народная песня. В темном лесе
15. Казачья песня (в обр. А. Ларина). Донцы-молодцы
16. Казачья песня*. Пчелочка златная
17. М. Кюсс (в обр. В. Соколова). Амурские волны
* Песня донских казаков Екатерининской станицы
Исполнители:
Мужской хор МИФИ
Художественный руководитель и дирижер Надежда Малявина
Переложения для мужского хора (1, 3, 4, 11, 12, 14, 16, 17) - Надежда Малявина
Партия фортепиано (4-9, 11-13, 17) - Дмитрий Семеновский
Солисты хора:
Виталий Филипов, тенор (9,16), Александр Ведерников, баритон (16), Леонид Малышев, тенор (15), Владимир Моргунов, баритон (15), Михаил Короткий, тенор (13), Алексей Разваляев, тенор (17)
Пятая студия Дома звукозаписи
Звукорежисеры В.А. Беднов и Л.А. Доронина

Лог создания рипа

Exact Audio Copy V1.0 beta 3 from 29. August 2011
Отчёт EAC об извлечении, выполненном 25. февраля 2014, 21:41
Академический мужской хор МИФИ / -
Дисковод: Optiarc DVD RW AD-5240S Adapter: 3 ID: 0
Режим чтения : ДостоверностьИспользование точного потока : ДаОтключение кэша аудио : ДаИспользование указателей C2 : Нет
Коррекция смещения при чтении : 48Способность читать области Lead-in и Lead-out : НетЗаполнение пропущенных сэмплов тишиной : ДаУдаление блоков с тишиной в начале и конце : НетПри вычислениях CRC использовались нулевые сэмплы : ДаИнтерфейс : Встроенный Win32-интерфейс для Win NT/2000
Выходной формат : Внутренние WAV-операцииФормат сэмплов : 44.100 Гц; 16 бит; стерео
TOC извлечённого CD
Трек | Старт | Длительность | Начальный сектор | Конечный сектор --------------------------------------------------------------------- 1 | 0:00.00 | 2:43.20 | 0 | 12244 2 | 2:43.20 | 2:46.47 | 12245 | 24741 3 | 5:29.67 | 1:41.39 | 24742 | 32355 4 | 7:11.31 | 6:31.13 | 32356 | 61693 5 | 13:42.44 | 4:08.71 | 61694 | 80364 6 | 17:51.40 | 2:34.21 | 80365 | 91935 7 | 20:25.61 | 5:00.51 | 91936 | 114486 8 | 25:26.37 | 3:07.43 | 114487 | 128554 9 | 28:34.05 | 3:46.23 | 128555 | 145527 10 | 32:20.28 | 2:27.02 | 145528 | 156554 11 | 34:47.30 | 3:15.25 | 156555 | 171204 12 | 38:02.55 | 3:45.54 | 171205 | 188133 13 | 41:48.34 | 3:38.25 | 188134 | 204508 14 | 45:26.59 | 2:01.19 | 204509 | 213602 15 | 47:28.03 | 2:31.59 | 213603 | 224986 16 | 49:59.62 | 2:34.06 | 224987 | 236542 17 | 52:33.68 | 3:30.65 | 236543 | 252357
Характеристики диапазона извлечения и сообщения об ошибках
Выбранный диапазон
Имя файла D:\Downloads\Академический мужской хор МИФИ.wav
Пиковый уровень 97.4 % Скорость извлечения 4.0 X Качество диапазона 100.0 % CRC теста 37352B3B CRC копии 37352B3B Копирование... OK
Ошибок не произошло
AccurateRip: сводка
Трек 1 отсутствует в базе данныхТрек 2 отсутствует в базе данныхТрек 3 отсутствует в базе данныхТрек 4 отсутствует в базе данныхТрек 5 отсутствует в базе данныхТрек 6 отсутствует в базе данныхТрек 7 отсутствует в базе данныхТрек 8 отсутствует в базе данныхТрек 9 отсутствует в базе данныхТрек 10 отсутствует в базе данныхТрек 11 отсутствует в базе данныхТрек 12 отсутствует в базе данныхТрек 13 отсутствует в базе данныхТрек 14 отсутствует в базе данныхТрек 15 отсутствует в базе данныхТрек 16 отсутствует в базе данныхТрек 17 отсутствует в базе данных
Ни одного трека нет в базе AccurateRip
Конец отчёта
==== Контрольная сумма отчёта 04251DC66430AB671CADEAB81D127FA73308B41F726BF32785A16D3737824C8B ====

Лог проверки качества

AUDIOCHECKER v2.0 beta (build 457) - by Dester - opdester@freemail.hu~~~~~~~~~~~~~~~~~~~~~~~~~~~~~~~~~~-=== НЕ РЕДАКТИРУЙТЕ ЭТОТ ФАЙЛ! ===-
Путь: ...\Академический мужской хор МИФИ
1 -=- Академический мужской хор МИФИ.wav -=- CDDA (100%)
258900756
[teatrix.ru].t7871.torrent 
Торрент: Зарегистрирован [ 2015-10-14 02:42 ] · 497262263202A31A67304EDE55C3905BB7BCC0B7

Скачать .torrent

Скачать

12 KB

Статус: проверено
Скачан: 0 раз
Размер: 268 MB
terms.php



Быстрый ответ

Имя:

      
Для отправки сообщений необходимо включить JavaScript
Показать сообщения:    

Текущее время: 11-Дек 09:11

Часовой пояс: UTC + 3


Вы можете начинать темы
Вы можете отвечать на сообщения
Вы не можете редактировать свои сообщения
Вы не можете удалять свои сообщения
Вы не можете голосовать в опросах
Вы не можете прикреплять файлы к сообщениям
Вы можете скачивать файлы