(Classical) Анатолий Королев. Чтение. eNsemble - 2005, FLAC (image+.cue) lossless


Статистика раздачи [Обновить пиров]
Размер:  214 MB   |    Зарегистрирован:  1 год 1 месяц   |    Скачан:  0 раз

Полного источника не было: Никогда

 
   
 
 
 

[Цитировать]

Анатолий Королев. Чтение. eNsemble
Жанр: Classical
Страна-производитель диска: Россия
Год издания диска: 2005
Издатель (лейбл): Мелодия
Номер по каталогу: MEL CD 10 00796
Дата записи: 2004
Аудиокодек: FLAC
Тип рипа: image+.cue
Битрейт аудио: lossless
Продолжительность: 50:51
Источник: собственный рип
Наличие сканов в содержимом раздачи: да
Треклист:
1. Стихи о страшном суде (12:54)
2. Махакала (бой у станции Лозовая) (12:44)
3. Ave Sanctissima Maria (3:40)
4. Veni creator (2:28)
5. Чтение (6:58)
6. Лернейская гидра (12:06)
Исполнители:
Bass Clarinet – Александр Осколков
Bassoon – Максим Антошин
Cello – Тарас Трепель
Clarinet – Евгений Кривошеин
Composed By – Анатолий Королёв
Conductor – Федор Леднев
Contrabass – Алексей Иванов
Drums – Александр Чернобаев
Engineer – Илья Петров
Ensemble – Ensemble Института ПРО АРТЕ
Flute – Андрей Вихарев
French Horn – Павел Глухов
Harp – Андрес Измайлов
Leader – Борис Филановский
Soprano Vocals – Ангелина Дашковская (tracks: 1, 3, 4)
Trombone – Денис Нестеров
Trumpet – Алексей Беляев
Viola – Алексей Богорад
Violin – Владислав Песин, Юрий Ущаповский

Лог создания рипа

Exact Audio Copy V1.0 beta 3 from 29. August 2011
Отчёт EAC об извлечении, выполненном 22. октября 2014, 2:02
Анатолий Королев / Чтение
Дисковод: TEAC DV-W516GA Adapter: 0 ID: 1
Режим чтения : ДостоверностьИспользование точного потока : ДаОтключение кэша аудио : ДаИспользование указателей C2 : Нет
Коррекция смещения при чтении : 12Способность читать области Lead-in и Lead-out : НетЗаполнение пропущенных сэмплов тишиной : ДаУдаление блоков с тишиной в начале и конце : НетПри вычислениях CRC использовались нулевые сэмплы : ДаИнтерфейс : Встроенный Win32-интерфейс для Win NT/2000
Выходной формат : Пользовательский кодировщикВыбранный битрейт : 128 kBit/sКачество : ВысокийДобавление ID3-тега : НетУтилита сжатия : D:\soft\flac\bin\flac.exeДополнительные параметры : -V -8 -T "Date=%year%" -T "Genre=%genre%" %source%
TOC извлечённого CD
Трек | Старт | Длительность | Начальный сектор | Конечный сектор --------------------------------------------------------------------- 1 | 0:00.00 | 12:54.00 | 0 | 58049 2 | 12:54.00 | 12:44.18 | 58050 | 115367 3 | 25:38.18 | 3:39.40 | 115368 | 131832 4 | 29:17.58 | 2:28.30 | 131833 | 142962 5 | 31:46.13 | 6:57.68 | 142963 | 174305 6 | 38:44.06 | 12:06.32 | 174306 | 228787
Характеристики диапазона извлечения и сообщения об ошибках
Выбранный диапазон
Имя файла G:\Анатолий Королев - Чтение.wav
Пиковый уровень 98.9 % Скорость извлечения 3.4 X Качество диапазона 100.0 % CRC теста 1A0EBF7A CRC копии 1A0EBF7A Копирование... OK
Ошибок не произошло
AccurateRip: сводка
Трек 1 : извлечено точно (доверие 1) [CBE5D7C1] (AR v2)Трек 2 : извлечено точно (доверие 1) [F7B55B5E] (AR v2)Трек 3 : извлечено точно (доверие 1) [8041853F] (AR v2)Трек 4 : извлечено точно (доверие 1) [A4E6D3CA] (AR v2)Трек 5 : извлечено точно (доверие 1) [1846B2DB] (AR v2)Трек 6 : извлечено точно (доверие 1) [50FF244F] (AR v2)
Все треки извлечены точно
Конец отчёта
==== Контрольная сумма отчёта 86D527F6D83BC51A13CB72539B97858D4D8AB59FAF68490960300E35137C73A0 ====

Содержание индексной карты (.CUE)

REM DISCID 550BEA06REM COMMENT "ExactAudioCopy v1.0b3"PERFORMER "Анатолий Королев"TITLE "Чтение"FILE "Анатолий Королев - Чтение.flac" WAVE TRACK 01 AUDIO TITLE "Стихи о страшном суде" PERFORMER "Анатолий Королев" FLAGS DCP INDEX 01 00:00:00 TRACK 02 AUDIO TITLE "Махакала (бой у станции Лозовая)" PERFORMER "Анатолий Королев" FLAGS DCP INDEX 00 12:51:51 INDEX 01 12:54:00 TRACK 03 AUDIO TITLE "Ave Sanctissima Maria " PERFORMER "Анатолий Королев" FLAGS DCP INDEX 00 25:33:16 INDEX 01 25:38:18 TRACK 04 AUDIO TITLE "Veni creator" PERFORMER "Анатолий Королев" FLAGS DCP INDEX 01 29:17:58 TRACK 05 AUDIO TITLE "Чтение" PERFORMER "Анатолий Королев" FLAGS DCP INDEX 00 31:41:64 INDEX 01 31:46:13 TRACK 06 AUDIO TITLE "Лернейская гидра" PERFORMER "Анатолий Королев" FLAGS DCP INDEX 00 38:40:06 INDEX 01 38:44:06
[teatrix.ru].t7872.torrent 
Торрент: Зарегистрирован [ 2015-10-14 02:42 ] · F2204440F7B6A302DDEBBABFD666ACA0630CA31F

Скачать .torrent

Скачать

18 KB

Статус: проверено
Скачан: 0 раз
Размер: 214 MB
terms.php



Быстрый ответ

Имя:

      
Для отправки сообщений необходимо включить JavaScript
Показать сообщения:    

Текущее время: 07-Дек 23:21

Часовой пояс: UTC + 3


Вы можете начинать темы
Вы можете отвечать на сообщения
Вы не можете редактировать свои сообщения
Вы не можете удалять свои сообщения
Вы не можете голосовать в опросах
Вы не можете прикреплять файлы к сообщениям
Вы можете скачивать файлы