(Classical) Byrd, Plummer, Tallis, Bennett, Jackson - Times go by Turns: sacred works - New York Polyphony - 2013, FLAC (image+.cue) lossless


Статистика раздачи [Обновить пиров]
Размер:  358 MB   |    Зарегистрирован:  1 год 1 месяц   |    Скачан:  2 раза

Полного источника не было: 4 месяца 7 дней

 
   
 
 
 

[Цитировать]

Times go by Turns - Byrd, Plummer, Tallis, Bennett, Jackson - New York Polyphony
Жанр: Classical
Страна-производитель диска: Sweden
Год издания диска: 2013
Издатель (лейбл): BIS
Номер по каталогу: BIS-SACD-2037
Дата записи: 2013
Аудиокодек: FLAC
Тип рипа: image+.cue
Битрейт аудио: lossless
Продолжительность: 77:58
Источник: собственный рип
Наличие сканов в содержимом раздачи: да
Треклист:
William Byrd (1540–1623)
[1]-[5] Mass for Four Voices
Richard Rodney Bennett (1936–2012)
[6] A Colloquy with God
John Plummer (1410–83)
[7]-[11] Missa sine nomine
for three voices (tenor, baritone & bass)
Andrew Smith (b. 1970)
[12] Kyrie: Cunctipotens Genitor Deus
Thomas Tallis (1505–85)
[13]-[16] Mass for Four Voices
Gabriel Jackson (b. 1962)
[17] Ite missa est
Исполнители:
New York Polyphony
Geoffrey Williams countertenor
Steven Caldicott Wilson tenor
Christopher Dylan Herbert baritone
Craig Phillips bass

Лог создания рипа

Exact Audio Copy V1.0 beta 3 from 29. August 2011
EAC extraction logfile from 29. September 2014, 1:19
New York Polyphony / Times go by Turns
Used drive : HL-DT-STDVDRAM GU70N Adapter: 0 ID: 0
Read mode : SecureUtilize accurate stream : YesDefeat audio cache : YesMake use of C2 pointers : No
Read offset correction : 48Overread into Lead-In and Lead-Out : NoFill up missing offset samples with silence : YesDelete leading and trailing silent blocks : NoNull samples used in CRC calculations : YesUsed interface : Native Win32 interface for Win NT & 2000
Used output format : User Defined EncoderSelected bitrate : 128 kBit/sQuality : HighAdd ID3 tag : NoCommand line compressor : C:\Program Files (x86)\Exact Audio Copy\Flac\flac.exeAdditional command line options : -V -8 -T "Date=%year%" -T "Genre=%genre%" %source%
TOC of the extracted CD
Track | Start | Length | Start sector | End sector --------------------------------------------------------- 1 | 0:00.00 | 1:55.06 | 0 | 8630 2 | 1:55.06 | 5:38.07 | 8631 | 33987 3 | 7:33.13 | 7:39.46 | 33988 | 68458 4 | 15:12.59 | 3:31.05 | 68459 | 84288 5 | 18:43.64 | 3:04.12 | 84289 | 98100 6 | 21:48.01 | 3:36.48 | 98101 | 114348 7 | 25:24.49 | 5:00.46 | 114349 | 136894 8 | 30:25.20 | 4:52.04 | 136895 | 158798 9 | 35:17.24 | 5:17.55 | 158799 | 182628 10 | 40:35.04 | 5:40.20 | 182629 | 208148 11 | 46:15.24 | 5:10.67 | 208149 | 231465 12 | 51:26.16 | 3:44.51 | 231466 | 248316 13 | 55:10.67 | 4:58.14 | 248317 | 270680 14 | 60:09.06 | 5:43.35 | 270681 | 296440 15 | 65:52.41 | 5:23.04 | 296441 | 320669 16 | 71:15.45 | 3:41.07 | 320670 | 337251 17 | 74:56.52 | 3:01.35 | 337252 | 350861
Range status and errors
Selected range
Filename C:\temp\BIS-SACD-2037 - Times go by Turns (New York Polyphony - BIS)\Times go by Turns.wav
Peak level 97.8 % Extraction speed 2.3 X Range quality 100.0 % Test CRC 572104A7 Copy CRC 572104A7 Copy OK
No errors occurred
AccurateRip summary
Track 1 accurately ripped (confidence 3) [E8FF1877] (AR v2)Track 2 accurately ripped (confidence 3) [B063A6FB] (AR v2)Track 3 accurately ripped (confidence 3) [2071EFC9] (AR v2)Track 4 accurately ripped (confidence 3) [7EC09AA4] (AR v2)Track 5 accurately ripped (confidence 3) [7C80BBC0] (AR v2)Track 6 accurately ripped (confidence 3) [90743117] (AR v2)Track 7 accurately ripped (confidence 3) [2D66418D] (AR v2)Track 8 accurately ripped (confidence 3) [D1DEDB2D] (AR v2)Track 9 accurately ripped (confidence 3) [C830A551] (AR v2)Track 10 accurately ripped (confidence 3) [F49EE98A] (AR v2)Track 11 accurately ripped (confidence 3) [52BCEF52] (AR v2)Track 12 accurately ripped (confidence 3) [E5F2B4C9] (AR v2)Track 13 accurately ripped (confidence 3) [307F91EF] (AR v2)Track 14 accurately ripped (confidence 3) [7D676337] (AR v2)Track 15 accurately ripped (confidence 3) [813AA980] (AR v2)Track 16 accurately ripped (confidence 3) [5DAB913A] (AR v2)Track 17 accurately ripped (confidence 3) [BD57A5F3] (AR v2)
All tracks accurately ripped
End of status report
==== Log checksum F12542CAF59A35908775E9F5CE04D334664BF432A7E38F1DFD1A4DD494B61D28 ====
[teatrix.ru].t7873.torrent 
Торрент: Зарегистрирован [ 2015-10-14 02:42 ] · CF5A380FF558DF6B4F31230AF5F7FBE8C20A5F85

Скачать .torrent

Скачать

29 KB

Статус: проверено
Скачан: 2 раз
Размер: 358 MB
terms.php



Быстрый ответ

Имя:

      
Для отправки сообщений необходимо включить JavaScript
Показать сообщения:    

Текущее время: 05-Дек 15:33

Часовой пояс: UTC + 3


Вы можете начинать темы
Вы можете отвечать на сообщения
Вы не можете редактировать свои сообщения
Вы не можете удалять свои сообщения
Вы не можете голосовать в опросах
Вы не можете прикреплять файлы к сообщениям
Вы можете скачивать файлы