(Classical) Gauntlett, Traditional, Britten, Thompson, Kirkpatrick, Adam, Skempton, Sirett, Tavener, Rutter, Praetorius - The Wonder of Christmas (Elora Festival Singers, Michael Bloss; Choir - Noel Edison) - 2014, FLAC (tracks+.cue) lossless


Статистика раздачи [Обновить пиров]
Размер:  206 MB   |    Зарегистрирован:  1 год 1 месяц   |    Скачан:  0 раз

Полного источника не было: Никогда

 
   
 
 
 

[Цитировать]

Gauntlett, Traditional, Britten, Thompson, Kirkpatrick, Adam, Skempton, Sirett, Tavener, Rutter, Praetorius - The Wonder of Christmas (Elora Festival Singers, Michael Bloss; Choir - Noel Edison)
Жанр: Classical
Год издания диска: 2014
Издатель (лейбл): Naxos
Номер по каталогу: 8.573421
Дата записи: 2014
Аудиокодек: FLAC
Тип рипа: tracks+.cue
Битрейт аудио: lossless
Продолжительность: 00:59:18
Источник: скачано из сети
Наличие сканов в содержимом раздачи: да
Исполнители:
Elora Festival Singers,
Michael Bloss, organ*
Choir
Noel Edison, Conductor

Треклист:

01. Once in Royal David's City (arr. A.H. Mann and D. Willcocks for choir and organ) (03:51)*
Gauntlett, Henry John
Alexander, Cecil Frances, lyricist(s)
Mann, Arthur Henry / Willcocks, David, arranger(s)

02. My Dancing Day (arr. B. Chilcott for choir) (01:52)
Traditional, lyricist(s)
Chilcott, Bob, arranger(s)

03. What Child Is This? (arr. P. Halley for choir and organ) (03:26)*
Traditional
Dix, William Chatterton, lyricist(s)
Halley, Paul, arranger(s)

04. A Boy Was Born, Op. 3: Theme: A Boy Was Born (02:11)
Britten, Benjamin
Dearmer, Percy, lyricist(s)

05. The holly and the ivy (03:19)*
Thompson, Stuart
Traditional, lyricist(s)

06. Who Is He in Yonder Stall (03:54)*
Young, Robert H.
Hanby, Benjamin Russell, lyricist(s)

07. Nesciens Mater Virgo Virum (03:55)
Mouton, Jean
08. Away in a Manger (arr. B. Chilcott for choir) (02:52)
Kirkpatrick, William J.
Chilcott, Bob, arranger(s)

09. Ding! Dong! Merrily on High (arr. M. Wilberg and P. Stevens for choir and organ) (02:04)*
Traditional
Woodward, George Ratcliffe, lyricist(s)
Stevens, Peter / Wilberg, Mack, arranger(s)

10. O Holy Night (04:34)*
Adam, Adolphe
Dwight, John Sullivan, lyricist(s)

11. Adam Lay Y - bounden (01:20)
Skempton, Howard
12. Ecce concipies (03:11)
Sirett, Mark
Bible - New Testament, lyricist(s)

13. Rocking (01:54)
Tavener, John
Dearmer, Percy / Traditional, lyricist(s)

14. Gabriel's Message (arr. G. Brown for choir and organ) (03:06)*
Traditional, lyricist(s)
Brown, Gerald, arranger(s)

15. I Wonder as I Wander (arr. L. Enns for choir) (04:26)
Traditional, lyricist(s)
Enns, Leonard, arranger(s)

16. There is a Flower (04:23)
Rutter, John
Audelay, John, lyricist(s)

17. Lo, How a Rose E'er Blooming (03:31)
Praetorius, Michael / Sandstrom, Jan
Baker, Theodore, lyricist(s)

18. The First Nowell (arr. P. Halley for choir and organ)/font] (05:29)*
Traditional, lyricist(s)
Halley, Paul, arranger(s)

LOG EAC:

Exact Audio Copy V1.0 beta 3 from 29. August 2011
EAC extraction logfile from 21. December 2014, 10:14
Elora Festival Singers, Michael Bloss (Organ), Noel Edison / The Wonder of Christmas
Used drive : hp DVD RW AD-7251H5 Adapter: 0 ID: 2
Read mode : SecureUtilize accurate stream : YesDefeat audio cache : YesMake use of C2 pointers : No
Read offset correction : 48Overread into Lead-In and Lead-Out : NoFill up missing offset samples with silence : YesDelete leading and trailing silent blocks : NoNull samples used in CRC calculations : YesUsed interface : Native Win32 interface for Win NT & 2000Gap handling : Appended to previous track
Used output format : User Defined EncoderSelected bitrate : 128 kBit/sQuality : HighAdd ID3 tag : NoCommand line compressor : C:\Program Files (x86)\Exact Audio Copy\Flac\flac.exeAdditional command line options : -8 -V -T "ARTIST=%artist%" -T "TITLE=%title%" -T "ALBUM=%albumtitle%" -T "DATE=%year%" -T "TRACKNUMBER=%tracknr%" -T "GENRE=%genre%" -T "PERFORMER=%albuminterpret%" -T "COMPOSER=%composer%" %haslyrics%--tag-from-file=LYRICS="%lyricsfile%"%haslyrics% -T "ALBUMARTIST=%albumartist%" -T "DISCNUMBER=%cdnumber%" -T "TOTALDISCS=%totalcds%" -T "TOTALTRACKS=%numtracks%" -T "COMMENT=%comment%" %source% -o %dest%
TOC of the extracted CD
Track | Start | Length | Start sector | End sector --------------------------------------------------------- 1 | 0:00.00 | 3:51.15 | 0 | 17339 2 | 3:51.15 | 1:51.45 | 17340 | 25709 3 | 5:42.60 | 3:25.45 | 25710 | 41129 4 | 9:08.30 | 2:10.45 | 41130 | 50924 5 | 11:19.00 | 3:19.00 | 50925 | 65849 6 | 14:38.00 | 3:54.30 | 65850 | 83429 7 | 18:32.30 | 3:55.15 | 83430 | 101069 8 | 22:27.45 | 2:51.60 | 101070 | 113954 9 | 25:19.30 | 2:04.30 | 113955 | 123284 10 | 27:23.60 | 4:34.15 | 123285 | 143849 11 | 31:58.00 | 1:20.30 | 143850 | 149879 12 | 33:18.30 | 3:10.60 | 149880 | 164189 13 | 36:29.15 | 1:53.60 | 164190 | 172724 14 | 38:23.00 | 3:06.30 | 172725 | 186704 15 | 41:29.30 | 4:25.45 | 186705 | 206624 16 | 45:55.00 | 4:23.00 | 206625 | 226349 17 | 50:18.00 | 3:30.60 | 226350 | 242159 18 | 53:48.60 | 5:29.15 | 242160 | 266849
Track 1
Filename M:\EAC\Elora Festival Singers, Michael Bloss (Organ), Noel Edison - 2014 - The Wonder of Christmas\01 - Once in royal David's city.wav
Pre-gap length 0:00:02.00
Peak level 69.1 % Extraction speed 1.8 X Track quality 100.0 % Test CRC 8D5038FC Copy CRC 8D5038FC Track not present in AccurateRip database Copy OK
Track 2
Filename M:\EAC\Elora Festival Singers, Michael Bloss (Organ), Noel Edison - 2014 - The Wonder of Christmas\02 - My Dancing Day.wav
Pre-gap length 0:00:02.93
Peak level 44.4 % Extraction speed 1.7 X Track quality 100.0 % Test CRC CD65151B Copy CRC CD65151B Track not present in AccurateRip database Copy OK
Track 3
Filename M:\EAC\Elora Festival Singers, Michael Bloss (Organ), Noel Edison - 2014 - The Wonder of Christmas\03 - What Child Is This.wav
Pre-gap length 0:00:04.53
Peak level 59.4 % Extraction speed 2.0 X Track quality 100.0 % Test CRC 6241B246 Copy CRC 6241B246 Track not present in AccurateRip database Copy OK
Track 4
Filename M:\EAC\Elora Festival Singers, Michael Bloss (Organ), Noel Edison - 2014 - The Wonder of Christmas\04 - A Boy Was Born.wav
Pre-gap length 0:00:05.13
Peak level 53.0 % Extraction speed 2.0 X Track quality 100.0 % Test CRC 312DB789 Copy CRC 312DB789 Track not present in AccurateRip database Copy OK
Track 5
Filename M:\EAC\Elora Festival Singers, Michael Bloss (Organ), Noel Edison - 2014 - The Wonder of Christmas\05 - The holly and the ivy.wav
Pre-gap length 0:00:05.73
Peak level 48.2 % Extraction speed 2.3 X Track quality 100.0 % Test CRC 0CE14691 Copy CRC 0CE14691 Track not present in AccurateRip database Copy OK
Track 6
Filename M:\EAC\Elora Festival Singers, Michael Bloss (Organ), Noel Edison - 2014 - The Wonder of Christmas\06 - Who is He in Yonder Stall.wav
Pre-gap length 0:00:04.73
Peak level 23.8 % Extraction speed 2.1 X Track quality 99.9 % Test CRC 7231D3C4 Copy CRC 7231D3C4 Track not present in AccurateRip database Copy OK
Track 7
Filename M:\EAC\Elora Festival Singers, Michael Bloss (Organ), Noel Edison - 2014 - The Wonder of Christmas\07 - Nesciens mater virgo virum.wav
Pre-gap length 0:00:04.13
Peak level 24.8 % Extraction speed 2.6 X Track quality 100.0 % Test CRC 34044715 Copy CRC 34044715 Track not present in AccurateRip database Copy OK
Track 8
Filename M:\EAC\Elora Festival Singers, Michael Bloss (Organ), Noel Edison - 2014 - The Wonder of Christmas\08 - Away in a Manger.wav
Pre-gap length 0:00:04.33
Peak level 19.9 % Extraction speed 2.6 X Track quality 100.0 % Test CRC D78C7C1E Copy CRC D78C7C1E Track not present in AccurateRip database Copy OK
Track 9
Filename M:\EAC\Elora Festival Singers, Michael Bloss (Organ), Noel Edison - 2014 - The Wonder of Christmas\09 - Ding Dong! Merrily on high.wav
Pre-gap length 0:00:05.13
Peak level 56.1 % Extraction speed 2.5 X Track quality 100.0 % Test CRC EF6D2401 Copy CRC EF6D2401 Track not present in AccurateRip database Copy OK
Track 10
Filename M:\EAC\Elora Festival Singers, Michael Bloss (Organ), Noel Edison - 2014 - The Wonder of Christmas\10 - O Holy Night.wav
Pre-gap length 0:00:03.53
Peak level 56.8 % Extraction speed 2.6 X Track quality 99.9 % Test CRC 9C28758A Copy CRC 9C28758A Track not present in AccurateRip database Copy OK
Track 11
Filename M:\EAC\Elora Festival Singers, Michael Bloss (Organ), Noel Edison - 2014 - The Wonder of Christmas\11 - Adam lay y-bounden.wav
Pre-gap length 0:00:04.73
Peak level 18.5 % Extraction speed 2.4 X Track quality 100.0 % Test CRC 90C751F9 Copy CRC 90C751F9 Track not present in AccurateRip database Copy OK
Track 12
Filename M:\EAC\Elora Festival Singers, Michael Bloss (Organ), Noel Edison - 2014 - The Wonder of Christmas\12 - Ecce concipies.wav
Pre-gap length 0:00:05.13
Peak level 39.1 % Extraction speed 3.0 X Track quality 100.0 % Test CRC F090DBD6 Copy CRC F090DBD6 Track not present in AccurateRip database Copy OK
Track 13
Filename M:\EAC\Elora Festival Singers, Michael Bloss (Organ), Noel Edison - 2014 - The Wonder of Christmas\13 - Rocking.wav
Pre-gap length 0:00:05.93
Peak level 15.5 % Extraction speed 2.7 X Track quality 100.0 % Test CRC E262A0F5 Copy CRC E262A0F5 Track not present in AccurateRip database Copy OK
Track 14
Filename M:\EAC\Elora Festival Singers, Michael Bloss (Organ), Noel Edison - 2014 - The Wonder of Christmas\14 - Gabriel's Message.wav
Pre-gap length 0:00:05.73
Peak level 40.6 % Extraction speed 3.1 X Track quality 100.0 % Test CRC BEAE433D Copy CRC BEAE433D Track not present in AccurateRip database Copy OK
Track 15
Filename M:\EAC\Elora Festival Singers, Michael Bloss (Organ), Noel Edison - 2014 - The Wonder of Christmas\15 - I Wonder as I Wander.wav
Pre-gap length 0:00:04.13
Peak level 49.7 % Extraction speed 3.0 X Track quality 99.9 % Test CRC B06992A2 Copy CRC B06992A2 Track not present in AccurateRip database Copy OK
Track 16
Filename M:\EAC\Elora Festival Singers, Michael Bloss (Organ), Noel Edison - 2014 - The Wonder of Christmas\16 - There is a Flower.wav
Pre-gap length 0:00:05.73
Peak level 25.3 % Extraction speed 3.6 X Track quality 100.0 % Test CRC DE959F4E Copy CRC DE959F4E Track not present in AccurateRip database Copy OK
Track 17
Filename M:\EAC\Elora Festival Singers, Michael Bloss (Organ), Noel Edison - 2014 - The Wonder of Christmas\17 - Lo, How a Rose E'er Blooming.wav
Pre-gap length 0:00:06.73
Peak level 7.8 % Extraction speed 3.0 X Track quality 99.9 % Test CRC 369CFEE5 Copy CRC 369CFEE5 Track not present in AccurateRip database Copy OK
Track 18
Filename M:\EAC\Elora Festival Singers, Michael Bloss (Organ), Noel Edison - 2014 - The Wonder of Christmas\18 - The First Nowell.wav
Pre-gap length 0:00:04.53
Peak level 79.3 % Extraction speed 3.9 X Track quality 100.0 % Test CRC 18CFF4EF Copy CRC 18CFF4EF Track not present in AccurateRip database Copy OK
None of the tracks are present in the AccurateRip database
No errors occurred
End of status report
---- CUETools DB Plugin V2.1.3
[CTDB TOCID: PVQkCHdYP3bhcKuyDUJZfqryNic-] disk not present in database, Submit result: PVQkCHdYP3bhcKuyDUJZfqryNic- has been uploaded
==== Log checksum 9915CEEC8BE27C03834E415A16FBD3359E2FF25C75DB657B9A6881C00D277DC2 ====

LOG (.CUE):

REM GENRE ClassicalREM DATE 2014REM DISCID C60DE612REM COMMENT "ExactAudioCopy v1.0b3"PERFORMER "Elora Festival Singers, Michael Bloss (Organ), Noel Edison"TITLE "The Wonder of Christmas"FILE "Elora Festival Singers, Michael Bloss (Organ), Noel Edison - 2014 - The Wonder of Christmas\01 - Once in royal David's city.wav" WAVE TRACK 01 AUDIO TITLE "Once in royal David's city" PERFORMER "Elora Festival Singers, Michael Bloss (Organ), Noel Edison" ISRC HKI191416601 INDEX 01 00:00:00 TRACK 02 AUDIO TITLE "My Dancing Day" PERFORMER "Elora Festival Singers, Michael Bloss (Organ), Noel Edison" ISRC HKI191416602 INDEX 00 03:48:20FILE "Elora Festival Singers, Michael Bloss (Organ), Noel Edison - 2014 - The Wonder of Christmas\02 - My Dancing Day.wav" WAVE INDEX 01 00:00:00 TRACK 03 AUDIO TITLE "What Child Is This?" PERFORMER "Elora Festival Singers, Michael Bloss (Organ), Noel Edison" ISRC HKI191416603 INDEX 00 01:47:05FILE "Elora Festival Singers, Michael Bloss (Organ), Noel Edison - 2014 - The Wonder of Christmas\03 - What Child Is This.wav" WAVE INDEX 01 00:00:00 TRACK 04 AUDIO TITLE "A Boy Was Born" PERFORMER "Elora Festival Singers, Michael Bloss (Organ), Noel Edison" ISRC HKI191416604 INDEX 00 03:20:35FILE "Elora Festival Singers, Michael Bloss (Organ), Noel Edison - 2014 - The Wonder of Christmas\04 - A Boy Was Born.wav" WAVE INDEX 01 00:00:00 TRACK 05 AUDIO TITLE "The holly and the ivy" PERFORMER "Elora Festival Singers, Michael Bloss (Organ), Noel Edison" ISRC HKI191416605 INDEX 00 02:04:65FILE "Elora Festival Singers, Michael Bloss (Organ), Noel Edison - 2014 - The Wonder of Christmas\05 - The holly and the ivy.wav" WAVE INDEX 01 00:00:00 TRACK 06 AUDIO TITLE "Who is He in Yonder Stall" PERFORMER "Elora Festival Singers, Michael Bloss (Organ), Noel Edison" ISRC HKI191416606 INDEX 00 03:14:20FILE "Elora Festival Singers, Michael Bloss (Organ), Noel Edison - 2014 - The Wonder of Christmas\06 - Who is He in Yonder Stall.wav" WAVE INDEX 01 00:00:00 TRACK 07 AUDIO TITLE "Nesciens mater virgo virum" PERFORMER "Elora Festival Singers, Michael Bloss (Organ), Noel Edison" ISRC HKI191416607 INDEX 00 03:50:20FILE "Elora Festival Singers, Michael Bloss (Organ), Noel Edison - 2014 - The Wonder of Christmas\07 - Nesciens mater virgo virum.wav" WAVE INDEX 01 00:00:00 TRACK 08 AUDIO TITLE "Away in a Manger" PERFORMER "Elora Festival Singers, Michael Bloss (Organ), Noel Edison" ISRC HKI191416608 INDEX 00 03:50:65FILE "Elora Festival Singers, Michael Bloss (Organ), Noel Edison - 2014 - The Wonder of Christmas\08 - Away in a Manger.wav" WAVE INDEX 01 00:00:00 TRACK 09 AUDIO TITLE "Ding Dong! Merrily on high" PERFORMER "Elora Festival Singers, Michael Bloss (Organ), Noel Edison" ISRC HKI191416609 INDEX 00 02:46:50FILE "Elora Festival Singers, Michael Bloss (Organ), Noel Edison - 2014 - The Wonder of Christmas\09 - Ding Dong! Merrily on high.wav" WAVE INDEX 01 00:00:00 TRACK 10 AUDIO TITLE "O Holy Night" PERFORMER "Elora Festival Singers, Michael Bloss (Organ), Noel Edison" ISRC HKI191416610 INDEX 00 02:00:65FILE "Elora Festival Singers, Michael Bloss (Organ), Noel Edison - 2014 - The Wonder of Christmas\10 - O Holy Night.wav" WAVE INDEX 01 00:00:00 TRACK 11 AUDIO TITLE "Adam lay y-bounden" PERFORMER "Elora Festival Singers, Michael Bloss (Organ), Noel Edison" ISRC HKI191416611 INDEX 00 04:29:35FILE "Elora Festival Singers, Michael Bloss (Organ), Noel Edison - 2014 - The Wonder of Christmas\11 - Adam lay y-bounden.wav" WAVE INDEX 01 00:00:00 TRACK 12 AUDIO TITLE "Ecce concipies" PERFORMER "Elora Festival Singers, Michael Bloss (Organ), Noel Edison" ISRC HKI191416612 INDEX 00 01:15:20FILE "Elora Festival Singers, Michael Bloss (Organ), Noel Edison - 2014 - The Wonder of Christmas\12 - Ecce concipies.wav" WAVE INDEX 01 00:00:00 TRACK 13 AUDIO TITLE "Rocking" PERFORMER "Elora Festival Singers, Michael Bloss (Organ), Noel Edison" ISRC HKI191416613 INDEX 00 03:04:65FILE "Elora Festival Singers, Michael Bloss (Organ), Noel Edison - 2014 - The Wonder of Christmas\13 - Rocking.wav" WAVE INDEX 01 00:00:00 TRACK 14 AUDIO TITLE "Gabriel's Message" PERFORMER "Elora Festival Singers, Michael Bloss (Organ), Noel Edison" ISRC HKI191416614 INDEX 00 01:48:05FILE "Elora Festival Singers, Michael Bloss (Organ), Noel Edison - 2014 - The Wonder of Christmas\14 - Gabriel's Message.wav" WAVE INDEX 01 00:00:00 TRACK 15 AUDIO TITLE "I Wonder as I Wander" PERFORMER "Elora Festival Singers, Michael Bloss (Organ), Noel Edison" ISRC HKI191416615 INDEX 00 03:02:20FILE "Elora Festival Singers, Michael Bloss (Organ), Noel Edison - 2014 - The Wonder of Christmas\15 - I Wonder as I Wander.wav" WAVE INDEX 01 00:00:00 TRACK 16 AUDIO TITLE "There is a Flower" PERFORMER "Elora Festival Singers, Michael Bloss (Organ), Noel Edison" ISRC HKI191416616 INDEX 00 04:19:65FILE "Elora Festival Singers, Michael Bloss (Organ), Noel Edison - 2014 - The Wonder of Christmas\16 - There is a Flower.wav" WAVE INDEX 01 00:00:00 TRACK 17 AUDIO TITLE "Lo, How a Rose E'er Blooming" PERFORMER "Elora Festival Singers, Michael Bloss (Organ), Noel Edison" ISRC HKI191416617 INDEX 00 04:16:20FILE "Elora Festival Singers, Michael Bloss (Organ), Noel Edison - 2014 - The Wonder of Christmas\17 - Lo, How a Rose E'er Blooming.wav" WAVE INDEX 01 00:00:00 TRACK 18 AUDIO TITLE "The First Nowell" PERFORMER "Elora Festival Singers, Michael Bloss (Organ), Noel Edison" ISRC HKI191416618 INDEX 00 03:26:20FILE "Elora Festival Singers, Michael Bloss (Organ), Noel Edison - 2014 - The Wonder of Christmas\18 - The First Nowell.wav" WAVE INDEX 01 00:00:00
[teatrix.ru].t7874.torrent 
Торрент: Зарегистрирован [ 2015-10-14 02:42 ] · 907454F729505DF4EFDE31E6D8365E5029E8B56A

Скачать .torrent

Скачать

18 KB

Статус: проверено
Скачан: 0 раз
Размер: 206 MB
terms.php



Быстрый ответ

Имя:

      
Для отправки сообщений необходимо включить JavaScript
Показать сообщения:    

Текущее время: 10-Дек 17:43

Часовой пояс: UTC + 3


Вы можете начинать темы
Вы можете отвечать на сообщения
Вы не можете редактировать свои сообщения
Вы не можете удалять свои сообщения
Вы не можете голосовать в опросах
Вы не можете прикреплять файлы к сообщениям
Вы можете скачивать файлы