(Mass) Beethoven - Missa Solemnis - Tate, Tschammer, Meier, Vaness, Blochwitz - 1990, FLAC (tracks+.cue) lossless


Статистика раздачи [Обновить пиров]
Размер:  317 MB   |    Зарегистрирован:  1 год 1 месяц   |    Скачан:  0 раз

Полного источника не было: Никогда

 
   
 
 
 

[Цитировать]

• Ludwig van Beethoven •
• Missa Solemnis in D major, Op. 123 •
Жанр: Mass
Страна-производитель диска: Germany
Год издания диска: 1990
Издатель (лейбл): EMI
Номер по каталогу: 49950
Дата записи: 1990
Аудиокодек: FLAC
Тип рипа: tracks+.cue
Битрейт аудио: lossless
Продолжительность: 01:17:59
Источник: скачано с
Наличие сканов в содержимом раздачи: нет
Треклист:
1 Kyrie. Kyrie eleison - Christe elison - Kyrie eleison 9:19
2 Gloria. Gloria in excelsis Deo - Gratias agimus tibi 4:55
3 Gloria. Qui tollis peccata mundi 5:38
4 Gloria. Quoniam tu solus Sanctus - In gloria Dei Patris. Amen 6:34
5 Credo. Credo in unum Deum 4:03
6 Credo. Et incarnatus est - Crucifixus etiam pro nobis 5:48
7 Credo. Et resurrexit tertia die - Credo in Spiritum Sanctum 2:52
8 Credo. Et vitam venturi saeculi. Amen 7:37
9 Sanctus. Sanctus, Dominus - Pleni sunt caeli - Osanna in excelsis – Praeludium 5:53
10 Sanctus. Benedictus 10:23
11 Agnus Dei. Agnus Dei 6:19
12 Agnus Dei. Dona nobis pacem - Agnus Dei 8:38
Исполнители:
• Hans Tschammer (Bass) •
• Waltraud Meier (Mezzo Soprano) •
• Carol Vaness (Soprano) •
• Hans-Peter Blochwitz (Tenor) •
• Дирижёр: Jeffrey Tate •
• Оркестр/Хор: English Chamber Orchestra, Tallis Chamber Choir •

Лог создания рипа

Exact Audio Copy V1.0 beta 3 from 29. August 2011
EAC extraction logfile from 16. August 2012, 15:46
Ludwig van Beethoven / Missa Solemnis
Used drive : Optiarc DVD+-RW AD-7760H Adapter: 0 ID: 1
Read mode : SecureUtilize accurate stream : NoDefeat audio cache : YesMake use of C2 pointers : No
Read offset correction : 1568Overread into Lead-In and Lead-Out : NoFill up missing offset samples with silence : YesDelete leading and trailing silent blocks : NoNull samples used in CRC calculations : YesUsed interface : Native Win32 interface for Win NT & 2000Gap handling : Appended to previous track
Used output format : User Defined EncoderSelected bitrate : 1024 kBit/sQuality : HighAdd ID3 tag : NoCommand line compressor : C:\Program Files (x86)\FLAC\flac.exeAdditional command line options : -8 -V -T "ARTIST=%artist%" -T "TITLE=%title%" -T "ALBUM=%albumtitle%" -T "DATE=%year%" -T "TRACKNUMBER=%tracknr%" -T "GENRE=%genre%" -T "PERFORMER=%albuminterpret%" -T "COMPOSER=%composer%" %haslyrics%--tag-from-file=LYRICS="%lyricsfile%"%haslyrics% -T "ALBUMARTIST=%albumartist%" -T "DISCNUMBER=%cdnumber%" -T "TOTALDISCS=%totalcds%" -T "TOTALTRACKS=%numtracks%" -T "COMMENT=%comment%" %source% -o %dest%
TOC of the extracted CD
Track | Start | Length | Start sector | End sector --------------------------------------------------------- 1 | 0:00.33 | 9:19.57 | 33 | 42014 2 | 9:20.15 | 4:55.10 | 42015 | 64149 3 | 14:15.25 | 5:38.70 | 64150 | 89569 4 | 19:54.20 | 6:34.55 | 89570 | 119174 5 | 26:29.00 | 4:03.33 | 119175 | 137432 6 | 30:32.33 | 5:48.57 | 137433 | 163589 7 | 36:21.15 | 2:52.28 | 163590 | 176517 8 | 39:13.43 | 7:37.20 | 176518 | 210812 9 | 46:50.63 | 5:53.35 | 210813 | 237322 10 | 52:44.23 | 10:23.20 | 237323 | 284067 11 | 63:07.43 | 6:19.37 | 284068 | 312529 12 | 69:27.05 | 8:38.25 | 312530 | 351404
Track 1
Filename C:\EACrips\Ludwig van Beethoven - 1990 - Missa Solemnis\01 - Kyrie.wav
Pre-gap length 0:00:02.33
Peak level 74.1 % Extraction speed 4.8 X Track quality 100.0 % Test CRC 0D2D477B Copy CRC 0D2D477B Copy OK
Track 2
Filename C:\EACrips\Ludwig van Beethoven - 1990 - Missa Solemnis\02 - Gloria in excelsis Deo.wav
Pre-gap length 0:00:00.02
Peak level 88.4 % Extraction speed 4.8 X Track quality 100.0 % Test CRC 24EF5255 Copy CRC 24EF5255 Copy OK
Track 3
Filename C:\EACrips\Ludwig van Beethoven - 1990 - Missa Solemnis\03 - Gloria, Qui tollis peccata mundi.wav
Pre-gap length 0:00:00.02
Peak level 77.9 % Extraction speed 5.4 X Track quality 100.0 % Test CRC A63D2546 Copy CRC A63D2546 Copy OK
Track 4
Filename C:\EACrips\Ludwig van Beethoven - 1990 - Missa Solemnis\04 - Gloria, Quoniam tu solus Sanctus.wav
Pre-gap length 0:00:00.02
Peak level 89.4 % Extraction speed 6.1 X Track quality 100.0 % Test CRC 8EEABFC0 Copy CRC 8EEABFC0 Copy OK
Track 5
Filename C:\EACrips\Ludwig van Beethoven - 1990 - Missa Solemnis\05 - Credo in unum Deum.wav
Pre-gap length 0:00:00.02
Peak level 95.5 % Extraction speed 5.7 X Track quality 100.0 % Test CRC 2D67A7CF Copy CRC 2D67A7CF Copy OK
Track 6
Filename C:\EACrips\Ludwig van Beethoven - 1990 - Missa Solemnis\06 - Credo, Et incarnatus est.wav
Pre-gap length 0:00:00.03
Peak level 61.4 % Extraction speed 6.7 X Track quality 100.0 % Test CRC 672DBE92 Copy CRC 672DBE92 Copy OK
Track 7
Filename C:\EACrips\Ludwig van Beethoven - 1990 - Missa Solemnis\07 - Credo in Spiritum Sanctum.wav
Pre-gap length 0:00:00.02
Peak level 97.7 % Extraction speed 5.5 X Track quality 100.0 % Test CRC 6828BC85 Copy CRC 6828BC85 Copy OK
Track 8
Filename C:\EACrips\Ludwig van Beethoven - 1990 - Missa Solemnis\08 - Credo, Et vitam venturi saeculi. Amen.wav
Pre-gap length 0:00:00.03
Peak level 100.0 % Extraction speed 7.8 X Track quality 100.0 % Test CRC 4247F704 Copy CRC 4247F704 Copy OK
Track 9
Filename C:\EACrips\Ludwig van Beethoven - 1990 - Missa Solemnis\09 - Sanctus, Dominus.wav
Pre-gap length 0:00:00.03
Peak level 68.6 % Extraction speed 7.7 X Track quality 100.0 % Test CRC 944285F5 Copy CRC 944285F5 Copy OK
Track 10
Filename C:\EACrips\Ludwig van Beethoven - 1990 - Missa Solemnis\10 - Sanctus, Benedictus.wav
Pre-gap length 0:00:00.03
Peak level 49.4 % Extraction speed 9.2 X Track quality 100.0 % Test CRC A078E8AE Copy CRC A078E8AE Copy OK
Track 11
Filename C:\EACrips\Ludwig van Beethoven - 1990 - Missa Solemnis\11 - Agnus Dei.wav
Pre-gap length 0:00:00.03
Peak level 85.0 % Extraction speed 8.8 X Track quality 100.0 % Test CRC F15EC97A Copy CRC F15EC97A Copy OK
Track 12
Filename C:\EACrips\Ludwig van Beethoven - 1990 - Missa Solemnis\12 - Agnus, Dona nobis pacem.wav
Pre-gap length 0:00:00.02
Peak level 97.7 % Extraction speed 9.8 X Track quality 100.0 % Test CRC CE8AA748 Copy CRC CE8AA748 Copy OK
No errors occurred
End of status report
==== Log checksum 98A9173B338B398EA7D9F06FCD22BB3EA3BB744313074E444C2A24CCEF0A61AB ====

Содержание индексной карты (.CUE)

REM GENRE ClassicalREM DATE 1990REM DISCID BD124D0CREM COMMENT "ExactAudioCopy v1.0b3"PERFORMER "Ludwig van Beethoven"TITLE "Missa Solemnis"FILE "Ludwig van Beethoven - 1990 - Missa Solemnis\01 - Kyrie.wav" WAVE TRACK 01 AUDIO TITLE "Kyrie" PERFORMER "Ludwig van Beethoven" PREGAP 00:00:33 INDEX 01 00:00:00 TRACK 02 AUDIO TITLE "Gloria in excelsis Deo" PERFORMER "Ludwig van Beethoven" INDEX 00 09:19:55FILE "Ludwig van Beethoven - 1990 - Missa Solemnis\02 - Gloria in excelsis Deo.wav" WAVE INDEX 01 00:00:00 TRACK 03 AUDIO TITLE "Gloria, Qui tollis peccata mundi" PERFORMER "Ludwig van Beethoven" INDEX 00 04:55:08FILE "Ludwig van Beethoven - 1990 - Missa Solemnis\03 - Gloria, Qui tollis peccata mundi.wav" WAVE INDEX 01 00:00:00 TRACK 04 AUDIO TITLE "Gloria, Quoniam tu solus Sanctus" PERFORMER "Ludwig van Beethoven" INDEX 00 05:38:68FILE "Ludwig van Beethoven - 1990 - Missa Solemnis\04 - Gloria, Quoniam tu solus Sanctus.wav" WAVE INDEX 01 00:00:00 TRACK 05 AUDIO TITLE "Credo in unum Deum" PERFORMER "Ludwig van Beethoven" INDEX 00 06:34:53FILE "Ludwig van Beethoven - 1990 - Missa Solemnis\05 - Credo in unum Deum.wav" WAVE INDEX 01 00:00:00 TRACK 06 AUDIO TITLE "Credo, Et incarnatus est" PERFORMER "Ludwig van Beethoven" INDEX 00 04:03:30FILE "Ludwig van Beethoven - 1990 - Missa Solemnis\06 - Credo, Et incarnatus est.wav" WAVE INDEX 01 00:00:00 TRACK 07 AUDIO TITLE "Credo in Spiritum Sanctum" PERFORMER "Ludwig van Beethoven" INDEX 00 05:48:55FILE "Ludwig van Beethoven - 1990 - Missa Solemnis\07 - Credo in Spiritum Sanctum.wav" WAVE INDEX 01 00:00:00 TRACK 08 AUDIO TITLE "Credo, Et vitam venturi saeculi. Amen" PERFORMER "Ludwig van Beethoven" INDEX 00 02:52:25FILE "Ludwig van Beethoven - 1990 - Missa Solemnis\08 - Credo, Et vitam venturi saeculi. Amen.wav" WAVE INDEX 01 00:00:00 TRACK 09 AUDIO TITLE "Sanctus, Dominus" PERFORMER "Ludwig van Beethoven" INDEX 00 07:37:17FILE "Ludwig van Beethoven - 1990 - Missa Solemnis\09 - Sanctus, Dominus.wav" WAVE INDEX 01 00:00:00 TRACK 10 AUDIO TITLE "Sanctus, Benedictus" PERFORMER "Ludwig van Beethoven" INDEX 00 05:53:32FILE "Ludwig van Beethoven - 1990 - Missa Solemnis\10 - Sanctus, Benedictus.wav" WAVE INDEX 01 00:00:00 TRACK 11 AUDIO TITLE "Agnus Dei" PERFORMER "Ludwig van Beethoven" INDEX 00 10:23:17FILE "Ludwig van Beethoven - 1990 - Missa Solemnis\11 - Agnus Dei.wav" WAVE INDEX 01 00:00:00 TRACK 12 AUDIO TITLE "Agnus, Dona nobis pacem" PERFORMER "Ludwig van Beethoven" INDEX 00 06:19:35FILE "Ludwig van Beethoven - 1990 - Missa Solemnis\12 - Agnus, Dona nobis pacem.wav" WAVE INDEX 01 00:00:00
[teatrix.ru].t7875.torrent 
Торрент: Зарегистрирован [ 2015-10-14 02:42 ] · D462E30EF9BF3DEE92A9064333A55FD2B10E1BA8

Скачать .torrent

Скачать

14 KB

Статус: проверено
Скачан: 0 раз
Размер: 317 MB
terms.php



Быстрый ответ

Имя:

      
Для отправки сообщений необходимо включить JavaScript
Показать сообщения:    

Текущее время: 08-Дек 12:51

Часовой пояс: UTC + 3


Вы можете начинать темы
Вы можете отвечать на сообщения
Вы не можете редактировать свои сообщения
Вы не можете удалять свои сообщения
Вы не можете голосовать в опросах
Вы не можете прикреплять файлы к сообщениям
Вы можете скачивать файлы