(Classical) Thomas Tallis - Missa Salve intemerata - Winchester Cathedral Choir, David Hill - 2013, FLAC (image+.cue) lossless


Статистика раздачи [Обновить пиров]
Размер:  250 MB   |    Зарегистрирован:  1 год 1 месяц   |    Скачан:  0 раз

Полного источника не было: Никогда

 
   
 
 
 

[Цитировать]

Thomas Tallis - Missa Salve intemerata - Winchester Cathedral Choir, David Hill
Жанр: Classical
Страна-производитель диска: UK
Год издания диска: 2013
Издатель (лейбл): Hyperion
Номер по каталогу: CDH55400
Дата записи: 2000
Аудиокодек: FLAC
Тип рипа: image+.cue
Битрейт аудио: lossless
Продолжительность: 67:48
Источник: собственный рип
Наличие сканов в содержимом раздачи: да
Треклист:
Thomas Tallis (c.1505-1585)
Missa Salve intemerata
[1] plainsong Kyrie fons bonitatis
[2] Missa Salve intemerata - 1. Gloria
[3] plainsong gradual Propter veritatem
[4] Missa Salve intemerata - 2. Credo
[5] plainsong antiphon Beata Dei genitrix
[6] Ave rosa sine spinis votive antiphon
[7] plainsong antiphon Nesciens mater
[8] Fantasy in A minor
[9] plainsong antiphon Regina caeli
[10] Salve intemerata votive antiphon
[11] plainsong antiphon Ave regina caelorum
[12] Missa Salve intemerata - 3. Sanctus
[13] Missa Salve intemerata - 4. Benedictus
[14] plainsong communion Beata viscera
[15] Missa Salve intemerata - 5. Agnus Dei
Исполнители:
Winchester Cathedral Choir
David Hill
Master of Music
Philip Scriven organ

Лог создания рипа

Exact Audio Copy V1.0 beta 3 from 29. August 2011
EAC extraction logfile from 18. December 2014, 1:09
Winchester Cathedral Choir, David Hill / Tallis - Missa Salve intemerata
Used drive : HL-DT-STDVDRAM GU70N Adapter: 0 ID: 0
Read mode : SecureUtilize accurate stream : YesDefeat audio cache : YesMake use of C2 pointers : No
Read offset correction : 48Overread into Lead-In and Lead-Out : NoFill up missing offset samples with silence : YesDelete leading and trailing silent blocks : NoNull samples used in CRC calculations : YesUsed interface : Native Win32 interface for Win NT & 2000
Used output format : User Defined EncoderSelected bitrate : 128 kBit/sQuality : HighAdd ID3 tag : NoCommand line compressor : C:\Program Files (x86)\Exact Audio Copy\Flac\flac.exeAdditional command line options : -V -8 -T "Date=%year%" -T "Genre=%genre%" %source%
TOC of the extracted CD
Track | Start | Length | Start sector | End sector --------------------------------------------------------- 1 | 0:00.00 | 3:18.19 | 0 | 14868 2 | 3:18.19 | 5:13.18 | 14869 | 38361 3 | 8:31.37 | 3:54.57 | 38362 | 55968 4 | 12:26.19 | 6:22.30 | 55969 | 84648 5 | 18:48.49 | 1:21.62 | 84649 | 90785 6 | 20:10.36 | 11:34.04 | 90786 | 142839 7 | 31:44.40 | 0:54.39 | 142840 | 146928 8 | 32:39.04 | 2:29.69 | 146929 | 158172 9 | 35:08.73 | 1:35.27 | 158173 | 165324 10 | 36:44.25 | 15:57.12 | 165325 | 237111 11 | 52:41.37 | 1:24.30 | 237112 | 243441 12 | 54:05.67 | 3:13.27 | 243442 | 257943 13 | 57:19.19 | 3:00.30 | 257944 | 271473 14 | 60:19.49 | 0:50.30 | 271474 | 275253 15 | 61:10.04 | 6:38.61 | 275254 | 305164
Range status and errors
Selected range
Filename C:\temp\CDH55400 - Tallis - Missa Salve intemerata\Tallis - Missa Salve intemerata.wav
Peak level 96.2 % Extraction speed 5.1 X Range quality 100.0 % Test CRC C246E091 Copy CRC C246E091 Copy OK
No errors occurred
AccurateRip summary
Track 1 cannot be verified as accurate (confidence 2) [8C63A2D7], AccurateRip returned [1ABABE2C] (AR v2)Track 2 cannot be verified as accurate (confidence 2) [538948A1], AccurateRip returned [364AD45B] (AR v2)Track 3 cannot be verified as accurate (confidence 2) [3F0237CE], AccurateRip returned [513B0FC4] (AR v2)Track 4 cannot be verified as accurate (confidence 2) [3DB283A0], AccurateRip returned [99F077E9] (AR v2)Track 5 cannot be verified as accurate (confidence 2) [67024BDF], AccurateRip returned [54829A3F] (AR v2)Track 6 cannot be verified as accurate (confidence 2) [4BB25401], AccurateRip returned [F4271317] (AR v2)Track 7 cannot be verified as accurate (confidence 2) [25DF0318], AccurateRip returned [62FD84F0] (AR v2)Track 8 cannot be verified as accurate (confidence 2) [A3DACBF1], AccurateRip returned [C3A05700] (AR v2)Track 9 cannot be verified as accurate (confidence 2) [C9A20224], AccurateRip returned [5BC72782] (AR v2)Track 10 cannot be verified as accurate (confidence 2) [27BBC62C], AccurateRip returned [EE149004] (AR v2)Track 11 cannot be verified as accurate (confidence 2) [07F8E93E], AccurateRip returned [445FC7BA] (AR v2)Track 12 cannot be verified as accurate (confidence 2) [325140E8], AccurateRip returned [C814F10E] (AR v2)Track 13 cannot be verified as accurate (confidence 2) [9D974DD9], AccurateRip returned [23AA2841] (AR v2)Track 14 cannot be verified as accurate (confidence 2) [64BC9ABA], AccurateRip returned [A603F847] (AR v2)Track 15 cannot be verified as accurate (confidence 2) [F0E01993], AccurateRip returned [4D7EDC68] (AR v2)
No tracks could be verified as accurateYou may have a different pressing from the one(s) in the database
End of status report
==== Log checksum F03959E8D14C0A1014362B3DAB0504CC1D2FAB1D97F7B432DFDB78E15256C54D ====
[teatrix.ru].t7876.torrent 
Торрент: Зарегистрирован [ 2015-10-14 02:42 ] · 21FBC9F2FED780A258424361AF8B2207B1A78E3A

Скачать .torrent

Скачать

40 KB

Статус: проверено
Скачан: 0 раз
Размер: 250 MB
terms.php



Быстрый ответ

Имя:

      
Для отправки сообщений необходимо включить JavaScript
Показать сообщения:    

Текущее время: 09-Дек 16:31

Часовой пояс: UTC + 3


Вы можете начинать темы
Вы можете отвечать на сообщения
Вы не можете редактировать свои сообщения
Вы не можете удалять свои сообщения
Вы не можете голосовать в опросах
Вы не можете прикреплять файлы к сообщениям
Вы можете скачивать файлы