(Classical) Mozart - Exsultate, jubilate; Vesperae solennes de confessore; Kyrie; Ave verum - Kiri Te Kanawa, London Symphony Orchestra & Chorus, Colin Davis - 1983, FLAC (image+.cue) lossless


Статистика раздачи [Обновить пиров]
Размер:  259 MB   |    Зарегистрирован:  1 год 1 месяц   |    Скачан:  0 раз

Полного источника не было: Никогда

 
   
 
 
 

[Цитировать]

Mozart - Exsultate, jubilate; Vesperae solennes de confessore; Kyrie; Ave verum - Kiri Te Kanawa, London Symphony Orchestra & Chorus, Colin Davis
Жанр: Classical
Год издания диска: 1983
Издатель (лейбл): Decca
Дата записи: 1971
Аудиокодек: FLAC
Тип рипа: image+.cue
Битрейт аудио: lossless
Продолжительность: 56:42
Источник: собственный рип
Наличие сканов в содержимом раздачи: да
Треклист:
Wolfgang Amadeus Mozart (1756-1791)
[1]-[6] Vesperae solennes de confessore, K.339
[7] Kyrie in D minor, K.341
[8] Ave verum corpus, K.618
[9] Exsultate, jubilate, K.165
Исполнители:
Kiri Te Kanawa soprano (K.339, K.165)
Elizabeth Bainbridge contralto (K.339)
Ryland Davies tenor (K.339)
Gwenny Howell bass (K.339)
London Symphony Orchestra & Chorus
Sir Colin Davis
conductor

Лог создания рипа

Exact Audio Copy V1.0 beta 3 from 29. August 2011
EAC extraction logfile from 16. December 2014, 21:07
Kiri Te Kanawa, LSO & Chorus, Colin Davis / Mozart - Vesperae solennes de confessore; Exsultate, jubilate
Used drive : HL-DT-STDVDRAM GU70N Adapter: 0 ID: 0
Read mode : SecureUtilize accurate stream : YesDefeat audio cache : YesMake use of C2 pointers : No
Read offset correction : 48Overread into Lead-In and Lead-Out : NoFill up missing offset samples with silence : YesDelete leading and trailing silent blocks : NoNull samples used in CRC calculations : YesUsed interface : Native Win32 interface for Win NT & 2000
Used output format : User Defined EncoderSelected bitrate : 128 kBit/sQuality : HighAdd ID3 tag : NoCommand line compressor : C:\Program Files (x86)\Exact Audio Copy\Flac\flac.exeAdditional command line options : -V -8 -T "Date=%year%" -T "Genre=%genre%" %source%
TOC of the extracted CD
Track | Start | Length | Start sector | End sector --------------------------------------------------------- 1 | 0:00.33 | 3:51.37 | 33 | 17394 2 | 3:51.70 | 5:14.38 | 17395 | 40982 3 | 9:06.33 | 4:21.00 | 40983 | 60557 4 | 13:27.33 | 4:47.00 | 60558 | 82082 5 | 18:14.33 | 5:13.00 | 82083 | 105557 6 | 23:27.33 | 5:29.00 | 105558 | 130232 7 | 28:56.33 | 8:31.00 | 130233 | 168557 8 | 37:27.33 | 4:01.00 | 168558 | 186632 9 | 41:28.33 | 15:14.00 | 186633 | 255182
Range status and errors
Selected range
Filename C:\temp\Mozart - Vesperae solennes de confessore; Exsultate, jubilate - Kiri Te Kanawa, London SO, Davis\Mozart - Vesperae solennes de confessore; Exsultate, jubilate.wav
Peak level 93.0 % Extraction speed 5.1 X Range quality 100.0 % Test CRC 8DE9AF9F Copy CRC 8DE9AF9F Copy OK
No errors occurred
AccurateRip summary
Track 1 accurately ripped (confidence 3) [84C57D9E] (AR v2)Track 2 accurately ripped (confidence 3) [267310D8] (AR v2)Track 3 accurately ripped (confidence 3) [0EC637D6] (AR v2)Track 4 accurately ripped (confidence 3) [EEC03ED2] (AR v2)Track 5 accurately ripped (confidence 3) [A7F96978] (AR v2)Track 6 accurately ripped (confidence 3) [E3421C20] (AR v2)Track 7 accurately ripped (confidence 3) [AF3AE70D] (AR v2)Track 8 accurately ripped (confidence 3) [251514D5] (AR v2)Track 9 accurately ripped (confidence 3) [604B52F6] (AR v2)
All tracks accurately ripped
End of status report
==== Log checksum F4066A3FB3BEB63092AC8C837E91381802CD07E99F15537CF81D66FBF457C59A ====
[teatrix.ru].t7877.torrent 
Торрент: Зарегистрирован [ 2015-10-14 02:42 ] · 667AC7FFC2537C968E50C40E1F6C1F04082F2AE9

Скачать .torrent

Скачать

22 KB

Статус: проверено
Скачан: 0 раз
Размер: 259 MB
terms.php



Быстрый ответ

Имя:

      
Для отправки сообщений необходимо включить JavaScript
Показать сообщения:    

Текущее время: 03-Дек 14:39

Часовой пояс: UTC + 3


Вы можете начинать темы
Вы можете отвечать на сообщения
Вы не можете редактировать свои сообщения
Вы не можете удалять свои сообщения
Вы не можете голосовать в опросах
Вы не можете прикреплять файлы к сообщениям
Вы можете скачивать файлы