(Sacred) Monteverdi: Vespro della Beata Vergine, 1610 - Gardiner, Tear, Shirley-Quirk, Bowman, Palmer, Langridge, Gomez, Monteverdi Orchestra - 1994, FLAC (tracks+.cue) lossless


Статистика раздачи [Обновить пиров]
Размер:  590 MB   |    Зарегистрирован:  1 год 1 месяц   |    Скачан:  0 раз

Полного источника не было: Никогда

 
   
 
 
 

[Цитировать]

Claudio Monteverdi (1567 - 1643)
Vespro della Beata Vergine
Жанр: Sacred
Страна-производитель диска: Germany
Год издания диска: 1994
Издатель (лейбл): Decca
Номер по каталогу: 414572
Дата записи: 1974
Аудиокодек: FLAC
Тип рипа: tracks+.cue
Битрейт аудио: lossless
Источник: скачано с
Наличие сканов в содержимом раздачи: нет

Треклист & ИсполнителиDisc 1



Claudio Monteverdi (1567 - 1643)
Vespro della Beata Vergine
Performing Edition by John Eliot Gardiner

1. 1. Deus in adjutorium meum intende 0:17
2. 2. Domine ad adjuvandum me festina 2:08
3. 3. Psalmus 109: Dixit Dominus 8:11
4. 4. Concerto: Nigra sum 4:29
5. 5. Psalmus 112: Laudate, pueri, Dominum 6:53
6. 6. Concerto: Pulchra es 4:23
7. 7. Psalmus 121: Laetatus sum 8:00
8. 8. Concerto: Duo Seraphim 7:06
9. 9. Psalmus 126: Nisi Dominus 5:24
10. 10. Concerto: Audi, coelum 10:09
11. 11. Psalmus 147; Lauda, Jerusalem, Dominum 4:41
12. 12. Sonata sopra 'Sancta Maria, ora pro nobis' 7:28

Disc 2

1. 13. Hymnus: Ave Maria stella 10:10
2. 14. Magnificat: Magnificat 0:58
3. 15. Magnificat: Et exultavit 1:31
4. 16. Magnificat: Quia respexit 1:56
5. 17. Magnificat: Quia fecit mihi magna 1:05
6. 18. Magnificat: Et misericordia eius 2:35
7. 19. Magnificat: Fecit Potentiam 1:00
8. 20. Deposuit potentes 2:33
9. 21. Esurientes implevit bonis 1:28
10. 22. Suscepit Israel 1:27
11. 23. Sicut locutus est 0:54
12. 24. Gloria Patri 2:44
13. 25. Sicut erat in principio 1:39

Jill Gomez, Felicity Palmer, James Bowman, Robert Tear, Philip Langridge, John Shirley-Quirk, Michael Rippon, Salisbury Cathedral Boys' Choir, The Monteverdi Choir, The Philip Jones Brass Ensemble, David Munrow Recorder Ensemble, Monteverdi Orchestra, John Eliot Gardiner

Giovanni Gabrieli (1553 - 1612)
14. Audite principes a 16, 7:04
Giovanni Bassano (1558 - 1617)
15. Hodie Christus natus est 2:28
Giovanni Gabrieli (1553 - 1612)
16. Angelus ad pastores 2:09
17. Quem Vidistis pastores a 12, 10:20
18. Salvator noster a 15, C 80 6:04
19.O magnum mysterium 4:40
Claudio Monteverdi (1567 - 1643)
20. Exultent caeli 7:48

John Angelo Messana,
Charles Brett, Philip Langridge, Martyn Hill, Philip Jones Wind Ensemble, The Philip Jones Brass Ensemble, The Monteverdi Choir, John Eliot Gardiner

Отчёт XLDDisc 1

X Lossless Decoder version 20120226 (139.1)
XLD extraction logfile from 2012-03-13 16:09:29 +0100
Jennifer Ward Clarke, John Shirley-Quirk, Etc.; John Eliot Gardiner: Monteverdi Choir & Orchestra, Philip Jones Brass Ensemble / Monteverdi: Vespers [Disc 1]
Used drive : MATSHITA DVD-R UJ-857 (revision HAEA)
Ripper mode : XLD Secure RipperDisable audio cache : OK for the drive with a cache less than 1375KiBMake use of C2 pointers : NORead offset correction : 102Max retry count : 20Gap status : Analyzed, Appended (except HTOA)
TOC of the extracted CD Track | Start | Length | Start sector | End sector --------------------------------------------------------- 1 | 00:00:32 | 00:16:60 | 32 | 1291 2 | 00:17:17 | 02:11:40 | 1292 | 11156 3 | 02:28:57 | 08:15:68 | 11157 | 48349 4 | 10:44:50 | 04:32:70 | 48350 | 68819 5 | 15:17:45 | 06:56:15 | 68820 | 100034 6 | 22:13:60 | 04:27:47 | 100035 | 120106 7 | 26:41:32 | 08:04:45 | 120107 | 156451 8 | 34:46:02 | 07:10:30 | 156452 | 188731 9 | 41:56:32 | 05:28:25 | 188732 | 213356 10 | 47:24:57 | 10:12:50 | 213357 | 259306 11 | 57:37:32 | 04:45:00 | 259307 | 280681 12 | 62:22:32 | 07:28:00 | 280682 | 314281
List of alternate offset correction values # | Absolute | Relative | Confidence ------------------------------------------ 1 | -562 | -664 | 4
AccurateRip Summary Track 01 : OK (AR2, confidence 4) Track 02 : OK (AR2, confidence 4) Track 03 : OK (AR2, confidence 4) Track 04 : OK (AR2, confidence 4) Track 05 : OK (AR2, confidence 4) Track 06 : OK (AR2, confidence 4) Track 07 : OK (AR2, confidence 4) Track 08 : OK (AR2, confidence 4) Track 09 : OK (AR2, confidence 4) Track 10 : OK (AR2, confidence 3) Track 11 : OK (AR2, confidence 3) Track 12 : OK (AR2, confidence 4) ->All tracks accurately ripped.
All Tracks Album gain : 0.93 dB Peak : 0.854767 Statistics Read error : 0 Jitter error (maybe fixed) : 0 Retry sector count : 0 Damaged sector count : 0
Track 01 Filename : /Users/admin/Music/Jennifer Ward Clarke, John Shirley-Quirk, Etc.; John Eliot Gardiner: Monteverdi Choir & Orchestra, Philip Jones Brass Ensemble - Monteverdi: Vespers [Disc 1] (1994) [FLAC]/01 Monteverdi: Vespers - Deus In Adjutorium Meum Intende.flac Pre-gap length : 00:02:32
Track gain : 6.01 dB Peak : 0.227997 CRC32 hash (test run) : 8331F8AE CRC32 hash : 8331F8AE CRC32 hash (skip zero) : DF34CF45 AccurateRip signature : 770E03D4 ->Accurately ripped! (AR2, confidence 4) Statistics Read error : 0 Jitter error (maybe fixed) : 0 Retry sector count : 0 Damaged sector count : 0
Track 02 Filename : /Users/admin/Music/Jennifer Ward Clarke, John Shirley-Quirk, Etc.; John Eliot Gardiner: Monteverdi Choir & Orchestra, Philip Jones Brass Ensemble - Monteverdi: Vespers [Disc 1] (1994) [FLAC]/02 Monteverdi: Vespers - Domine Ad Adjuvandum Me Festina.flac
Track gain : -2.68 dB Peak : 0.854767 CRC32 hash (test run) : BB0609FF CRC32 hash : BB0609FF CRC32 hash (skip zero) : 9B3F31D9 AccurateRip signature : CBB1C8CD ->Accurately ripped! (AR2, confidence 4) Statistics Read error : 0 Jitter error (maybe fixed) : 0 Retry sector count : 0 Damaged sector count : 0
Track 03 Filename : /Users/admin/Music/Jennifer Ward Clarke, John Shirley-Quirk, Etc.; John Eliot Gardiner: Monteverdi Choir & Orchestra, Philip Jones Brass Ensemble - Monteverdi: Vespers [Disc 1] (1994) [FLAC]/03 Monteverdi: Vespers - Dixit Dominus.flac Pre-gap length : 00:03:25
Track gain : 0.90 dB Peak : 0.755707 CRC32 hash (test run) : 7FA21803 CRC32 hash : 7FA21803 CRC32 hash (skip zero) : D663E7F9 AccurateRip signature : 6FD3D340 ->Accurately ripped! (AR2, confidence 4) Statistics Read error : 0 Jitter error (maybe fixed) : 0 Retry sector count : 0 Damaged sector count : 0
Track 04 Filename : /Users/admin/Music/Jennifer Ward Clarke, John Shirley-Quirk, Etc.; John Eliot Gardiner: Monteverdi Choir & Orchestra, Philip Jones Brass Ensemble - Monteverdi: Vespers [Disc 1] (1994) [FLAC]/04 Monteverdi: Vespers - Nigra Sum.flac Pre-gap length : 00:05:18
Track gain : 6.33 dB Peak : 0.406982 CRC32 hash (test run) : 1B4C8876 CRC32 hash : 1B4C8876 CRC32 hash (skip zero) : 6F8C1C4D AccurateRip signature : 0EDEEDF8 ->Accurately ripped! (AR2, confidence 4) Statistics Read error : 0 Jitter error (maybe fixed) : 0 Retry sector count : 0 Damaged sector count : 0
Track 05 Filename : /Users/admin/Music/Jennifer Ward Clarke, John Shirley-Quirk, Etc.; John Eliot Gardiner: Monteverdi Choir & Orchestra, Philip Jones Brass Ensemble - Monteverdi: Vespers [Disc 1] (1994) [FLAC]/05 Monteverdi: Vespers - Laudate Pueri Dominum.flac Pre-gap length : 00:04:13
Track gain : 2.00 dB Peak : 0.731812 CRC32 hash (test run) : D7595F80 CRC32 hash : D7595F80 CRC32 hash (skip zero) : 7C3B57BD AccurateRip signature : 5F0058C8 ->Accurately ripped! (AR2, confidence 4) Statistics Read error : 0 Jitter error (maybe fixed) : 0 Retry sector count : 0 Damaged sector count : 0
Track 06 Filename : /Users/admin/Music/Jennifer Ward Clarke, John Shirley-Quirk, Etc.; John Eliot Gardiner: Monteverdi Choir & Orchestra, Philip Jones Brass Ensemble - Monteverdi: Vespers [Disc 1] (1994) [FLAC]/06 Monteverdi: Vespers - Pulchra Es.flac Pre-gap length : 00:03:28
Track gain : 3.45 dB Peak : 0.569550 CRC32 hash (test run) : 19969680 CRC32 hash : 19969680 CRC32 hash (skip zero) : 79646B10 AccurateRip signature : 86068DC6 ->Accurately ripped! (AR2, confidence 4) Statistics Read error : 0 Jitter error (maybe fixed) : 0 Retry sector count : 0 Damaged sector count : 0
Track 07 Filename : /Users/admin/Music/Jennifer Ward Clarke, John Shirley-Quirk, Etc.; John Eliot Gardiner: Monteverdi Choir & Orchestra, Philip Jones Brass Ensemble - Monteverdi: Vespers [Disc 1] (1994) [FLAC]/07 Monteverdi: Vespers - Laetatus Sum.flac Pre-gap length : 00:04:35
Track gain : 0.90 dB Peak : 0.660095 CRC32 hash (test run) : 5BF55EC1 CRC32 hash : 5BF55EC1 CRC32 hash (skip zero) : 35B9347C AccurateRip signature : F40DE911 ->Accurately ripped! (AR2, confidence 4) Statistics Read error : 0 Jitter error (maybe fixed) : 0 Retry sector count : 0 Damaged sector count : 0
Track 08 Filename : /Users/admin/Music/Jennifer Ward Clarke, John Shirley-Quirk, Etc.; John Eliot Gardiner: Monteverdi Choir & Orchestra, Philip Jones Brass Ensemble - Monteverdi: Vespers [Disc 1] (1994) [FLAC]/08 Monteverdi: Vespers - Duo Seraphim.flac Pre-gap length : 00:04:15
Track gain : 5.94 dB Peak : 0.522705 CRC32 hash (test run) : F287F891 CRC32 hash : F287F891 CRC32 hash (skip zero) : B69389B5 AccurateRip signature : 473E51BC ->Accurately ripped! (AR2, confidence 4) Statistics Read error : 0 Jitter error (maybe fixed) : 0 Retry sector count : 0 Damaged sector count : 0
Track 09 Filename : /Users/admin/Music/Jennifer Ward Clarke, John Shirley-Quirk, Etc.; John Eliot Gardiner: Monteverdi Choir & Orchestra, Philip Jones Brass Ensemble - Monteverdi: Vespers [Disc 1] (1994) [FLAC]/09 Monteverdi: Vespers - Nisi Dominus.flac Pre-gap length : 00:04:12
Track gain : 2.11 dB Peak : 0.616699 CRC32 hash (test run) : 5DAD28B0 CRC32 hash : 5DAD28B0 CRC32 hash (skip zero) : 9AF3F89F AccurateRip signature : 94051D44 ->Accurately ripped! (AR2, confidence 4) Statistics Read error : 0 Jitter error (maybe fixed) : 0 Retry sector count : 0 Damaged sector count : 0
Track 10 Filename : /Users/admin/Music/Jennifer Ward Clarke, John Shirley-Quirk, Etc.; John Eliot Gardiner: Monteverdi Choir & Orchestra, Philip Jones Brass Ensemble - Monteverdi: Vespers [Disc 1] (1994) [FLAC]/10 Monteverdi: Vespers - Audi Coelum.flac Pre-gap length : 00:04:02
Track gain : 3.24 dB Peak : 0.819275 CRC32 hash (test run) : 15D5DCBD CRC32 hash : 15D5DCBD CRC32 hash (skip zero) : F601A0D4 AccurateRip signature : D69F3EED ->Accurately ripped! (AR2, confidence 3) Statistics Read error : 0 Jitter error (maybe fixed) : 0 Retry sector count : 0 Damaged sector count : 0
Track 11 Filename : /Users/admin/Music/Jennifer Ward Clarke, John Shirley-Quirk, Etc.; John Eliot Gardiner: Monteverdi Choir & Orchestra, Philip Jones Brass Ensemble - Monteverdi: Vespers [Disc 1] (1994) [FLAC]/11 Monteverdi: Vespers - Lauda Jerusalem.flac Pre-gap length : 00:03:45
Track gain : -0.24 dB Peak : 0.742584 CRC32 hash (test run) : 2C6ED730 CRC32 hash : 2C6ED730 CRC32 hash (skip zero) : EE1F8329 AccurateRip signature : 37A0FE98 ->Accurately ripped! (AR2, confidence 3) Statistics Read error : 0 Jitter error (maybe fixed) : 0 Retry sector count : 0 Damaged sector count : 0
Track 12 Filename : /Users/admin/Music/Jennifer Ward Clarke, John Shirley-Quirk, Etc.; John Eliot Gardiner: Monteverdi Choir & Orchestra, Philip Jones Brass Ensemble - Monteverdi: Vespers [Disc 1] (1994) [FLAC]/12 Monteverdi: Vespers - Sonata Sopra "Sancta Maria, Ora Pro Nobis".flac Pre-gap length : 00:03:62
Track gain : 0.87 dB Peak : 0.672180 CRC32 hash (test run) : 6C32DCBE CRC32 hash : 6C32DCBE CRC32 hash (skip zero) : 9E589746 AccurateRip signature : E120F244 ->Accurately ripped! (AR2, confidence 4) Statistics Read error : 0 Jitter error (maybe fixed) : 0 Retry sector count : 0 Damaged sector count : 0
No errors occurred
End of status report

Disc 2

X Lossless Decoder version 20120226 (139.1)
XLD extraction logfile from 2012-03-13 16:48:19 +0100
Various Artists / Monteverdi: Vespers [Disc 2]
Used drive : MATSHITA DVD-R UJ-857 (revision HAEA)
Ripper mode : XLD Secure RipperDisable audio cache : OK for the drive with a cache less than 1375KiBMake use of C2 pointers : NORead offset correction : 102Max retry count : 20Gap status : Analyzed, Appended (except HTOA)
TOC of the extracted CD Track | Start | Length | Start sector | End sector --------------------------------------------------------- 1 | 00:00:32 | 10:17:55 | 32 | 46361 2 | 10:18:12 | 00:57:63 | 46362 | 50699 3 | 11:16:00 | 01:31:20 | 50700 | 57544 4 | 12:47:20 | 01:55:72 | 57545 | 66241 5 | 14:43:17 | 01:05:25 | 66242 | 71141 6 | 15:48:42 | 02:34:58 | 71142 | 82749 7 | 18:23:25 | 00:59:55 | 82750 | 87229 8 | 19:23:05 | 02:32:60 | 87230 | 98689 9 | 21:55:65 | 01:27:55 | 98690 | 105269 10 | 23:23:45 | 01:27:25 | 105270 | 111819 11 | 24:50:70 | 00:53:50 | 111820 | 115844 12 | 25:44:45 | 02:43:50 | 115845 | 128119 13 | 28:28:20 | 01:48:12 | 128120 | 136231 14 | 30:16:32 | 07:11:33 | 136232 | 168589 15 | 37:27:65 | 02:35:42 | 168590 | 180256 16 | 40:03:32 | 02:16:30 | 180257 | 190486 17 | 42:19:62 | 10:26:68 | 190487 | 237504 18 | 52:46:55 | 06:10:52 | 237505 | 265306 19 | 58:57:32 | 04:47:13 | 265307 | 286844 20 | 63:44:45 | 07:48:25 | 286845 | 321969
List of alternate offset correction values # | Absolute | Relative | Confidence ------------------------------------------ 1 | -562 | -664 | 3 2 | -673 | -775 | 2
AccurateRip Summary Track 01 : OK (AR2, confidence 4) Track 02 : OK (AR2, confidence 4) Track 03 : OK (AR2, confidence 4) Track 04 : OK (AR2, confidence 4) Track 05 : OK (AR2, confidence 4) Track 06 : OK (AR2, confidence 4) Track 07 : OK (AR2, confidence 4) Track 08 : OK (AR2, confidence 4) Track 09 : OK (AR2, confidence 4) Track 10 : OK (AR2, confidence 4) Track 11 : OK (AR2, confidence 4) Track 12 : OK (AR2, confidence 4) Track 13 : OK (AR2, confidence 4) Track 14 : OK (AR2, confidence 4) Track 15 : OK (AR2, confidence 4) Track 16 : OK (AR2, confidence 4) Track 17 : OK (AR2, confidence 4) Track 18 : OK (AR2, confidence 4) Track 19 : OK (AR2, confidence 4) Track 20 : OK (AR2, confidence 4) ->All tracks accurately ripped.
All Tracks Album gain : -1.02 dB Peak : 0.937469 Statistics Read error : 0 Jitter error (maybe fixed) : 0 Retry sector count : 0 Damaged sector count : 0
Track 01 Filename : /Users/admin/Music/Various Artists - Monteverdi: Vespers [Disc 2] (1994) [FLAC]/01 Monteverdi: Vespers - Ave Maris Stella.flac Pre-gap length : 00:02:32
Track gain : 5.09 dB Peak : 0.480591 CRC32 hash (test run) : 5F952820 CRC32 hash : 5F952820 CRC32 hash (skip zero) : 263BDAB5 AccurateRip signature : 1B2DAA1D ->Accurately ripped! (AR2, confidence 4) Statistics Read error : 0 Jitter error (maybe fixed) : 0 Retry sector count : 0 Damaged sector count : 0
Track 02 Filename : /Users/admin/Music/Various Artists - Monteverdi: Vespers [Disc 2] (1994) [FLAC]/02 Monteverdi: Vespers - Magnificat: Magnificat Anima Mea.flac Pre-gap length : 00:07:72
Track gain : -2.44 dB Peak : 0.798004 CRC32 hash (test run) : C82E7F91 CRC32 hash : C82E7F91 CRC32 hash (skip zero) : C60EE4FC AccurateRip signature : D964059D ->Accurately ripped! (AR2, confidence 4) Statistics Read error : 0 Jitter error (maybe fixed) : 0 Retry sector count : 0 Damaged sector count : 0
Track 03 Filename : /Users/admin/Music/Various Artists - Monteverdi: Vespers [Disc 2] (1994) [FLAC]/03 Monteverdi: Vespers - Magnificat: Et Exultavit.flac
Track gain : -0.20 dB Peak : 0.576294 CRC32 hash (test run) : 60BEDAF9 CRC32 hash : 60BEDAF9 CRC32 hash (skip zero) : 7D688FED AccurateRip signature : 21EFBD45 ->Accurately ripped! (AR2, confidence 4) Statistics Read error : 0 Jitter error (maybe fixed) : 0 Retry sector count : 0 Damaged sector count : 0
Track 04 Filename : /Users/admin/Music/Various Artists - Monteverdi: Vespers [Disc 2] (1994) [FLAC]/04 Monteverdi: Vespers - Magnificat: Quia Respexit.flac
Track gain : -0.69 dB Peak : 0.617554 CRC32 hash (test run) : CFD5D465 CRC32 hash : CFD5D465 CRC32 hash (skip zero) : 8ADBCEB2 AccurateRip signature : 16C12742 ->Accurately ripped! (AR2, confidence 4) Statistics Read error : 0 Jitter error (maybe fixed) : 0 Retry sector count : 0 Damaged sector count : 0
Track 05 Filename : /Users/admin/Music/Various Artists - Monteverdi: Vespers [Disc 2] (1994) [FLAC]/05 Monteverdi: Vespers - Magnificat: Quia Fecit Mihi Magna.flac
Track gain : -2.32 dB Peak : 0.699188 CRC32 hash (test run) : FF53343E CRC32 hash : FF53343E CRC32 hash (skip zero) : 635E0C35 AccurateRip signature : B94A4E48 ->Accurately ripped! (AR2, confidence 4) Statistics Read error : 0 Jitter error (maybe fixed) : 0 Retry sector count : 0 Damaged sector count : 0
Track 06 Filename : /Users/admin/Music/Various Artists - Monteverdi: Vespers [Disc 2] (1994) [FLAC]/06 Monteverdi: Vespers - Magnificat: Et Misericordia Eius.flac
Track gain : 6.80 dB Peak : 0.393372 CRC32 hash (test run) : 77299B20 CRC32 hash : 77299B20 CRC32 hash (skip zero) : 5A1E3685 AccurateRip signature : 0B8DAAB3 ->Accurately ripped! (AR2, confidence 4) Statistics Read error : 0 Jitter error (maybe fixed) : 0 Retry sector count : 0 Damaged sector count : 0
Track 07 Filename : /Users/admin/Music/Various Artists - Monteverdi: Vespers [Disc 2] (1994) [FLAC]/07 Monteverdi: Vespers - Magnificat: Fecit Potentiam.flac
Track gain : 2.09 dB Peak : 0.442719 CRC32 hash (test run) : 6C57F4FD CRC32 hash : 6C57F4FD CRC32 hash (skip zero) : 8F66355E AccurateRip signature : B4AF9303 ->Accurately ripped! (AR2, confidence 4) Statistics Read error : 0 Jitter error (maybe fixed) : 0 Retry sector count : 0 Damaged sector count : 0
Track 08 Filename : /Users/admin/Music/Various Artists - Monteverdi: Vespers [Disc 2] (1994) [FLAC]/08 Monteverdi: Vespers - Magnificat: Deposuit Potentes.flac
Track gain : 4.65 dB Peak : 0.329041 CRC32 hash (test run) : E5F058F5 CRC32 hash : E5F058F5 CRC32 hash (skip zero) : 8BE8728A AccurateRip signature : FE08AC07 ->Accurately ripped! (AR2, confidence 4) Statistics Read error : 0 Jitter error (maybe fixed) : 0 Retry sector count : 0 Damaged sector count : 0
Track 09 Filename : /Users/admin/Music/Various Artists - Monteverdi: Vespers [Disc 2] (1994) [FLAC]/09 Monteverdi: Vespers - Magnificat: Esurientes Implevit Bonis.flac
Track gain : 1.14 dB Peak : 0.566620 CRC32 hash (test run) : 0DC470D3 CRC32 hash : 0DC470D3 CRC32 hash (skip zero) : 29A6F415 AccurateRip signature : 07E48ACA ->Accurately ripped! (AR2, confidence 4) Statistics Read error : 0 Jitter error (maybe fixed) : 0 Retry sector count : 0 Damaged sector count : 0
Track 10 Filename : /Users/admin/Music/Various Artists - Monteverdi: Vespers [Disc 2] (1994) [FLAC]/10 Monteverdi: Vespers - Magnificat: Suscepit Israel.flac
Track gain : 1.61 dB Peak : 0.683716 CRC32 hash (test run) : 3383103F CRC32 hash : 3383103F CRC32 hash (skip zero) : A5376CEB AccurateRip signature : F9894771 ->Accurately ripped! (AR2, confidence 4) Statistics Read error : 0 Jitter error (maybe fixed) : 0 Retry sector count : 0 Damaged sector count : 0
Track 11 Filename : /Users/admin/Music/Various Artists - Monteverdi: Vespers [Disc 2] (1994) [FLAC]/11 Monteverdi: Vespers - Magnificat: Sicut Locutus Est.flac
Track gain : -2.11 dB Peak : 0.704559 CRC32 hash (test run) : 266F92B3 CRC32 hash : 266F92B3 CRC32 hash (skip zero) : B53023B7 AccurateRip signature : 525B515D ->Accurately ripped! (AR2, confidence 4) Statistics Read error : 0 Jitter error (maybe fixed) : 0 Retry sector count : 0 Damaged sector count : 0
Track 12 Filename : /Users/admin/Music/Various Artists - Monteverdi: Vespers [Disc 2] (1994) [FLAC]/12 Monteverdi: Vespers - Magnificat: Gloria Patri.flac
Track gain : 1.46 dB Peak : 0.487701 CRC32 hash (test run) : 7BE09F7F CRC32 hash : 7BE09F7F CRC32 hash (skip zero) : FD340086 AccurateRip signature : F89BACB8 ->Accurately ripped! (AR2, confidence 4) Statistics Read error : 0 Jitter error (maybe fixed) : 0 Retry sector count : 0 Damaged sector count : 0
Track 13 Filename : /Users/admin/Music/Various Artists - Monteverdi: Vespers [Disc 2] (1994) [FLAC]/13 Monteverdi: Vespers - Magnificat: Sicut Erat In Principio.flac
Track gain : -4.04 dB Peak : 0.935394 CRC32 hash (test run) : AEAE07C4 CRC32 hash : AEAE07C4 CRC32 hash (skip zero) : FB5E2E50 AccurateRip signature : E17A7945 ->Accurately ripped! (AR2, confidence 4) Statistics Read error : 0 Jitter error (maybe fixed) : 0 Retry sector count : 0 Damaged sector count : 0
Track 14 Filename : /Users/admin/Music/Various Artists - Monteverdi: Vespers [Disc 2] (1994) [FLAC]/14 Gabrieli (G): Audite Principes, C 123.flac Pre-gap length : 00:09:42
Track gain : -2.56 dB Peak : 0.917969 CRC32 hash (test run) : 5EBA3AD2 CRC32 hash : 5EBA3AD2 CRC32 hash (skip zero) : D5C6F527 AccurateRip signature : B32EB4EF ->Accurately ripped! (AR2, confidence 4) Statistics Read error : 0 Jitter error (maybe fixed) : 0 Retry sector count : 0 Damaged sector count : 0
Track 15 Filename : /Users/admin/Music/Various Artists - Monteverdi: Vespers [Disc 2] (1994) [FLAC]/15 Bassani: Hodie Christus Natus Est.flac Pre-gap length : 00:07:38
Track gain : 1.71 dB Peak : 0.657806 CRC32 hash (test run) : DFDBC177 CRC32 hash : DFDBC177 CRC32 hash (skip zero) : A2C1BE29 AccurateRip signature : D1493D82 ->Accurately ripped! (AR2, confidence 4) Statistics Read error : 0 Jitter error (maybe fixed) : 0 Retry sector count : 0 Damaged sector count : 0
Track 16 Filename : /Users/admin/Music/Various Artists - Monteverdi: Vespers [Disc 2] (1994) [FLAC]/16 Gabrieli (G): Angelus Ad Pastores.flac Pre-gap length : 00:07:70
Track gain : -2.02 dB Peak : 0.874603 CRC32 hash (test run) : 22E81F26 CRC32 hash : 22E81F26 CRC32 hash (skip zero) : C7E42A9E AccurateRip signature : 45CBA4B0 ->Accurately ripped! (AR2, confidence 4) Statistics Read error : 0 Jitter error (maybe fixed) : 0 Retry sector count : 0 Damaged sector count : 0
Track 17 Filename : /Users/admin/Music/Various Artists - Monteverdi: Vespers [Disc 2] (1994) [FLAC]/17 Gabrieli (G): Quem Vidistis Pastores, C 77.flac Pre-gap length : 00:07:10
Track gain : 0.75 dB Peak : 0.937469 CRC32 hash (test run) : 65A9D6A9 CRC32 hash : 65A9D6A9 CRC32 hash (skip zero) : C01F1A98 AccurateRip signature : B68C1618 ->Accurately ripped! (AR2, confidence 4) Statistics Read error : 0 Jitter error (maybe fixed) : 0 Retry sector count : 0 Damaged sector count : 0
Track 18 Filename : /Users/admin/Music/Various Artists - Monteverdi: Vespers [Disc 2] (1994) [FLAC]/18 Gabrieli (G): Salvator Noster, C 80.flac Pre-gap length : 00:06:38
Track gain : -1.69 dB Peak : 0.937469 CRC32 hash (test run) : 6A45DF4C CRC32 hash : 6A45DF4C CRC32 hash (skip zero) : 481FD91F AccurateRip signature : 408C10B0 ->Accurately ripped! (AR2, confidence 4) Statistics Read error : 0 Jitter error (maybe fixed) : 0 Retry sector count : 0 Damaged sector count : 0
Track 19 Filename : /Users/admin/Music/Various Artists - Monteverdi: Vespers [Disc 2] (1994) [FLAC]/19 Gabrieli (G): O Magnum Mysterium.flac Pre-gap length : 00:06:67
Track gain : -0.53 dB Peak : 0.819336 CRC32 hash (test run) : 77CA187F CRC32 hash : 77CA187F CRC32 hash (skip zero) : 4F552DD0 AccurateRip signature : B2DBD581 ->Accurately ripped! (AR2, confidence 4) Statistics Read error : 0 Jitter error (maybe fixed) : 0 Retry sector count : 0 Damaged sector count : 0
Track 20 Filename : /Users/admin/Music/Various Artists - Monteverdi: Vespers [Disc 2] (1994) [FLAC]/20 Monteverdi: Exultent Caeli, SV 304.flac Pre-gap length : 00:07:33
Track gain : 0.90 dB Peak : 0.869720 CRC32 hash (test run) : EBFBB7E7 CRC32 hash : EBFBB7E7 CRC32 hash (skip zero) : 05AA8857 AccurateRip signature : 0A788A15 ->Accurately ripped! (AR2, confidence 4) Statistics Read error : 0 Jitter error (maybe fixed) : 0 Retry sector count : 0 Damaged sector count : 0
No errors occurred
End of status report

Содержание индексной карты (.CUE)Disc 1

TITLE "Monteverdi: Vespers [Disc 1]"PERFORMER "Jennifer Ward Clarke, John Shirley-Quirk, Etc.; John Eliot Gardiner: Monteverdi Choir & Orchestra, Philip Jones Brass Ensemble"CATALOG 0028944348323REM GENRE "Classical"REM DATE "1994"REM DISCNUMBER 1REM TOTALDISCS 2REM DISCID A8105E0CREM REPLAYGAIN_ALBUM_GAIN 0.93 dBREM REPLAYGAIN_ALBUM_PEAK 0.854767FILE "01 Monteverdi: Vespers - Deus In Adjutorium Meum Intende.flac" WAVE TRACK 01 AUDIO TITLE "Monteverdi: Vespers - Deus In Adjutorium Meum Intende" SONGWRITER "Monteverdi, Claudio (1567-1643)/Claudio Monteverdi" ISRC GBF077440101 REM COMMENT "Decca 443 482-2" REM REPLAYGAIN_TRACK_GAIN 6.01 dB REM REPLAYGAIN_TRACK_PEAK 0.227997 PREGAP 00:00:32 INDEX 01 00:00:00FILE "02 Monteverdi: Vespers - Domine Ad Adjuvandum Me Festina.flac" WAVE TRACK 02 AUDIO TITLE "Monteverdi: Vespers - Domine Ad Adjuvandum Me Festina" SONGWRITER "Monteverdi, Claudio (1567-1643)/Claudio Monteverdi" ISRC GBF077440102 REM COMMENT "Decca 443 482-2" REM REPLAYGAIN_TRACK_GAIN -2.68 dB REM REPLAYGAIN_TRACK_PEAK 0.854767 INDEX 01 00:00:00 TRACK 03 AUDIO TITLE "Monteverdi: Vespers - Dixit Dominus" SONGWRITER "Monteverdi, Claudio (1567-1643)/Claudio Monteverdi" ISRC GBF077440103 REM COMMENT "Decca 443 482-2" REM REPLAYGAIN_TRACK_GAIN 0.90 dB REM REPLAYGAIN_TRACK_PEAK 0.755707 INDEX 00 02:08:15FILE "03 Monteverdi: Vespers - Dixit Dominus.flac" WAVE INDEX 01 00:00:00 TRACK 04 AUDIO TITLE "Monteverdi: Vespers - Nigra Sum" SONGWRITER "Monteverdi, Claudio (1567-1643)/Claudio Monteverdi" ISRC GBF077440104 REM COMMENT "Decca 443 482-2" REM REPLAYGAIN_TRACK_GAIN 6.33 dB REM REPLAYGAIN_TRACK_PEAK 0.406982 INDEX 00 08:10:50FILE "04 Monteverdi: Vespers - Nigra Sum.flac" WAVE INDEX 01 00:00:00 TRACK 05 AUDIO TITLE "Monteverdi: Vespers - Laudate Pueri Dominum" SONGWRITER "Monteverdi, Claudio (1567-1643)/Claudio Monteverdi" ISRC GBF077440105 REM COMMENT "Decca 443 482-2" REM REPLAYGAIN_TRACK_GAIN 2.00 dB REM REPLAYGAIN_TRACK_PEAK 0.731812 INDEX 00 04:28:57FILE "05 Monteverdi: Vespers - Laudate Pueri Dominum.flac" WAVE INDEX 01 00:00:00 TRACK 06 AUDIO TITLE "Monteverdi: Vespers - Pulchra Es" SONGWRITER "Monteverdi, Claudio (1567-1643)/Claudio Monteverdi" ISRC GBF077440106 REM COMMENT "Decca 443 482-2" REM REPLAYGAIN_TRACK_GAIN 3.45 dB REM REPLAYGAIN_TRACK_PEAK 0.569550 INDEX 00 06:52:62FILE "06 Monteverdi: Vespers - Pulchra Es.flac" WAVE INDEX 01 00:00:00 TRACK 07 AUDIO TITLE "Monteverdi: Vespers - Laetatus Sum" SONGWRITER "Monteverdi, Claudio (1567-1643)/Claudio Monteverdi" ISRC GBF077440107 REM COMMENT "Decca 443 482-2" REM REPLAYGAIN_TRACK_GAIN 0.90 dB REM REPLAYGAIN_TRACK_PEAK 0.660095 INDEX 00 04:23:12FILE "07 Monteverdi: Vespers - Laetatus Sum.flac" WAVE INDEX 01 00:00:00 TRACK 08 AUDIO TITLE "Monteverdi: Vespers - Duo Seraphim" SONGWRITER "Monteverdi, Claudio (1567-1643)/Claudio Monteverdi" ISRC GBF077440108 REM COMMENT "Decca 443 482-2" REM REPLAYGAIN_TRACK_GAIN 5.94 dB REM REPLAYGAIN_TRACK_PEAK 0.522705 INDEX 00 08:00:30FILE "08 Monteverdi: Vespers - Duo Seraphim.flac" WAVE INDEX 01 00:00:00 TRACK 09 AUDIO TITLE "Monteverdi: Vespers - Nisi Dominus" SONGWRITER "Monteverdi, Claudio (1567-1643)/Claudio Monteverdi" ISRC GBF077440109 REM COMMENT "Decca 443 482-2" REM REPLAYGAIN_TRACK_GAIN 2.11 dB REM REPLAYGAIN_TRACK_PEAK 0.616699 INDEX 00 07:06:18FILE "09 Monteverdi: Vespers - Nisi Dominus.flac" WAVE INDEX 01 00:00:00 TRACK 10 AUDIO TITLE "Monteverdi: Vespers - Audi Coelum" SONGWRITER "Monteverdi, Claudio (1567-1643)/Claudio Monteverdi" ISRC GBF077440110 REM COMMENT "Decca 443 482-2" REM REPLAYGAIN_TRACK_GAIN 3.24 dB REM REPLAYGAIN_TRACK_PEAK 0.819275 INDEX 00 05:24:23FILE "10 Monteverdi: Vespers - Audi Coelum.flac" WAVE INDEX 01 00:00:00 TRACK 11 AUDIO TITLE "Monteverdi: Vespers - Lauda Jerusalem" SONGWRITER "Monteverdi, Claudio (1567-1643)/Claudio Monteverdi" ISRC GBF077440111 REM COMMENT "Decca 443 482-2" REM REPLAYGAIN_TRACK_GAIN -0.24 dB REM REPLAYGAIN_TRACK_PEAK 0.742584 INDEX 00 10:09:05FILE "11 Monteverdi: Vespers - Lauda Jerusalem.flac" WAVE INDEX 01 00:00:00 TRACK 12 AUDIO TITLE "Monteverdi: Vespers - Sonata Sopra "Sancta Maria, Ora Pro Nobis"" SONGWRITER "Monteverdi, Claudio (1567-1643)/Claudio Monteverdi" ISRC GBF077440112 REM COMMENT "Decca 443 482-2" REM REPLAYGAIN_TRACK_GAIN 0.87 dB REM REPLAYGAIN_TRACK_PEAK 0.672180 INDEX 00 04:41:13FILE "12 Monteverdi: Vespers - Sonata Sopra "Sancta Maria, Ora Pro Nobis".flac" WAVE INDEX 01 00:00:00

Disc 2

TITLE "Monteverdi: Vespers [Disc 2]"CATALOG 0028944348422REM GENRE "Classical"REM DATE "1994"REM DISCNUMBER 2REM TOTALDISCS 2REM DISCID 1F10C414REM REPLAYGAIN_ALBUM_GAIN -1.02 dBREM REPLAYGAIN_ALBUM_PEAK 0.937469FILE "01 Monteverdi: Vespers - Ave Maris Stella.flac" WAVE TRACK 01 AUDIO TITLE "Monteverdi: Vespers - Ave Maris Stella" PERFORMER "Jennifer Ward Clarke, John Shirley-Quirk, Etc.; John Eliot Gardiner: Monteverdi Choir & Orchestra, Philip Jones Brass Ensemble" SONGWRITER "Claudio Monteverdi" ISRC GBF077440113 REM COMMENT "Decca – 443 482-2" REM REPLAYGAIN_TRACK_GAIN 5.09 dB REM REPLAYGAIN_TRACK_PEAK 0.480591 PREGAP 00:00:32 INDEX 01 00:00:00 TRACK 02 AUDIO TITLE "Monteverdi: Vespers - Magnificat: Magnificat Anima Mea" PERFORMER "Jennifer Ward Clarke, John Shirley-Quirk, Etc.; John Eliot Gardiner: Monteverdi Choir & Orchestra, Philip Jones Brass Ensemble" SONGWRITER "Claudio Monteverdi" ISRC GBF077440114 REM COMMENT "Decca – 443 482-2" REM REPLAYGAIN_TRACK_GAIN -2.44 dB REM REPLAYGAIN_TRACK_PEAK 0.798004 INDEX 00 10:09:58FILE "02 Monteverdi: Vespers - Magnificat: Magnificat Anima Mea.flac" WAVE INDEX 01 00:00:00FILE "03 Monteverdi: Vespers - Magnificat: Et Exultavit.flac" WAVE TRACK 03 AUDIO TITLE "Monteverdi: Vespers - Magnificat: Et Exultavit" PERFORMER "Jennifer Ward Clarke, John Shirley-Quirk, Etc.; John Eliot Gardiner: Monteverdi Choir & Orchestra, Philip Jones Brass Ensemble" SONGWRITER "Claudio Monteverdi" ISRC GBF077440115 REM COMMENT "Decca – 443 482-2" REM REPLAYGAIN_TRACK_GAIN -0.20 dB REM REPLAYGAIN_TRACK_PEAK 0.576294 INDEX 01 00:00:00FILE "04 Monteverdi: Vespers - Magnificat: Quia Respexit.flac" WAVE TRACK 04 AUDIO TITLE "Monteverdi: Vespers - Magnificat: Quia Respexit" PERFORMER "Jennifer Ward Clarke, John Shirley-Quirk, Etc.; John Eliot Gardiner: Monteverdi Choir & Orchestra, Philip Jones Brass Ensemble" SONGWRITER "Claudio Monteverdi" ISRC GBF077440116 REM COMMENT "Decca – 443 482-2" REM REPLAYGAIN_TRACK_GAIN -0.69 dB REM REPLAYGAIN_TRACK_PEAK 0.617554 INDEX 01 00:00:00FILE "05 Monteverdi: Vespers - Magnificat: Quia Fecit Mihi Magna.flac" WAVE TRACK 05 AUDIO TITLE "Monteverdi: Vespers - Magnificat: Quia Fecit Mihi Magna" PERFORMER "Jennifer Ward Clarke, John Shirley-Quirk, Etc.; John Eliot Gardiner: Monteverdi Choir & Orchestra, Philip Jones Brass Ensemble" SONGWRITER "Claudio Monteverdi" ISRC GBF077440117 REM COMMENT "Decca – 443 482-2" REM REPLAYGAIN_TRACK_GAIN -2.32 dB REM REPLAYGAIN_TRACK_PEAK 0.699188 INDEX 01 00:00:00FILE "06 Monteverdi: Vespers - Magnificat: Et Misericordia Eius.flac" WAVE TRACK 06 AUDIO TITLE "Monteverdi: Vespers - Magnificat: Et Misericordia Eius" PERFORMER "Jennifer Ward Clarke, John Shirley-Quirk, Etc.; John Eliot Gardiner: Monteverdi Choir & Orchestra, Philip Jones Brass Ensemble" SONGWRITER "Claudio Monteverdi" ISRC GBF077440118 REM COMMENT "Decca – 443 482-2" REM REPLAYGAIN_TRACK_GAIN 6.80 dB REM REPLAYGAIN_TRACK_PEAK 0.393372 INDEX 01 00:00:00FILE "07 Monteverdi: Vespers - Magnificat: Fecit Potentiam.flac" WAVE TRACK 07 AUDIO TITLE "Monteverdi: Vespers - Magnificat: Fecit Potentiam" PERFORMER "Jennifer Ward Clarke, John Shirley-Quirk, Etc.; John Eliot Gardiner: Monteverdi Choir & Orchestra, Philip Jones Brass Ensemble" SONGWRITER "Claudio Monteverdi" ISRC GBF077440119 REM COMMENT "Decca – 443 482-2" REM REPLAYGAIN_TRACK_GAIN 2.09 dB REM REPLAYGAIN_TRACK_PEAK 0.442719 INDEX 01 00:00:00FILE "08 Monteverdi: Vespers - Magnificat: Deposuit Potentes.flac" WAVE TRACK 08 AUDIO TITLE "Monteverdi: Vespers - Magnificat: Deposuit Potentes" PERFORMER "Jennifer Ward Clarke, John Shirley-Quirk, Etc.; John Eliot Gardiner: Monteverdi Choir & Orchestra, Philip Jones Brass Ensemble" SONGWRITER "Claudio Monteverdi" ISRC GBF077440120 REM COMMENT "Decca – 443 482-2" REM REPLAYGAIN_TRACK_GAIN 4.65 dB REM REPLAYGAIN_TRACK_PEAK 0.329041 INDEX 01 00:00:00FILE "09 Monteverdi: Vespers - Magnificat: Esurientes Implevit Bonis.flac" WAVE TRACK 09 AUDIO TITLE "Monteverdi: Vespers - Magnificat: Esurientes Implevit Bonis" PERFORMER "Jennifer Ward Clarke, John Shirley-Quirk, Etc.; John Eliot Gardiner: Monteverdi Choir & Orchestra, Philip Jones Brass Ensemble" SONGWRITER "Claudio Monteverdi" ISRC GBF077440121 REM COMMENT "Decca – 443 482-2" REM REPLAYGAIN_TRACK_GAIN 1.14 dB REM REPLAYGAIN_TRACK_PEAK 0.566620 INDEX 01 00:00:00FILE "10 Monteverdi: Vespers - Magnificat: Suscepit Israel.flac" WAVE TRACK 10 AUDIO TITLE "Monteverdi: Vespers - Magnificat: Suscepit Israel" PERFORMER "Jennifer Ward Clarke, John Shirley-Quirk, Etc.; John Eliot Gardiner: Monteverdi Choir & Orchestra, Philip Jones Brass Ensemble" SONGWRITER "Claudio Monteverdi" ISRC GBF077440122 REM COMMENT "Decca – 443 482-2" REM REPLAYGAIN_TRACK_GAIN 1.61 dB REM REPLAYGAIN_TRACK_PEAK 0.683716 INDEX 01 00:00:00FILE "11 Monteverdi: Vespers - Magnificat: Sicut Locutus Est.flac" WAVE TRACK 11 AUDIO TITLE "Monteverdi: Vespers - Magnificat: Sicut Locutus Est" PERFORMER "Jennifer Ward Clarke, John Shirley-Quirk, Etc.; John Eliot Gardiner: Monteverdi Choir & Orchestra, Philip Jones Brass Ensemble" SONGWRITER "Claudio Monteverdi" ISRC GBF077440123 REM COMMENT "Decca – 443 482-2" REM REPLAYGAIN_TRACK_GAIN -2.11 dB REM REPLAYGAIN_TRACK_PEAK 0.704559 INDEX 01 00:00:00FILE "12 Monteverdi: Vespers - Magnificat: Gloria Patri.flac" WAVE TRACK 12 AUDIO TITLE "Monteverdi: Vespers - Magnificat: Gloria Patri" PERFORMER "Jennifer Ward Clarke, John Shirley-Quirk, Etc.; John Eliot Gardiner: Monteverdi Choir & Orchestra, Philip Jones Brass Ensemble" SONGWRITER "Claudio Monteverdi" ISRC GBF077440124 REM COMMENT "Decca – 443 482-2" REM REPLAYGAIN_TRACK_GAIN 1.46 dB REM REPLAYGAIN_TRACK_PEAK 0.487701 INDEX 01 00:00:00FILE "13 Monteverdi: Vespers - Magnificat: Sicut Erat In Principio.flac" WAVE TRACK 13 AUDIO TITLE "Monteverdi: Vespers - Magnificat: Sicut Erat In Principio" PERFORMER "Jennifer Ward Clarke, John Shirley-Quirk, Etc.; John Eliot Gardiner: Monteverdi Choir & Orchestra, Philip Jones Brass Ensemble" SONGWRITER "Claudio Monteverdi" ISRC GBF077440125 REM COMMENT "Decca – 443 482-2" REM REPLAYGAIN_TRACK_GAIN -4.04 dB REM REPLAYGAIN_TRACK_PEAK 0.935394 INDEX 01 00:00:00 TRACK 14 AUDIO TITLE "Gabrieli (G): Audite Principes, C 123" PERFORMER "John Eliot Gardiner: Monteverdi Choir & Orchestra, Philip Jones Brass Ensemble" SONGWRITER "Giovanni Gabrieli" ISRC GBF077211532 REM COMMENT "Decca – 443 482-2" REM REPLAYGAIN_TRACK_GAIN -2.56 dB REM REPLAYGAIN_TRACK_PEAK 0.917969 INDEX 00 01:38:45FILE "14 Gabrieli (G): Audite Principes, C 123.flac" WAVE INDEX 01 00:00:00 TRACK 15 AUDIO TITLE "Bassani: Hodie Christus Natus Est" PERFORMER "John Eliot Gardiner: Monteverdi Choir & Orchestra, Philip Jones Brass Ensemble" ISRC GBF077211533 REM COMMENT "Decca – 443 482-2" REM REPLAYGAIN_TRACK_GAIN 1.71 dB REM REPLAYGAIN_TRACK_PEAK 0.657806 INDEX 00 07:03:70FILE "15 Bassani: Hodie Christus Natus Est.flac" WAVE INDEX 01 00:00:00 TRACK 16 AUDIO TITLE "Gabrieli (G): Angelus Ad Pastores" PERFORMER "John Eliot Gardiner: Monteverdi Choir & Orchestra, Philip Jones Brass Ensemble" SONGWRITER "Giovanni Gabrieli" ISRC GBF077211534 REM COMMENT "Decca – 443 482-2" REM REPLAYGAIN_TRACK_GAIN -2.02 dB REM REPLAYGAIN_TRACK_PEAK 0.874603 INDEX 00 02:27:47FILE "16 Gabrieli (G): Angelus Ad Pastores.flac" WAVE INDEX 01 00:00:00 TRACK 17 AUDIO TITLE "Gabrieli (G): Quem Vidistis Pastores, C 77" PERFORMER "John Eliot Gardiner: Monteverdi Choir & Orchestra, Philip Jones Brass Ensemble" SONGWRITER "Giovanni Gabrieli" ISRC GBF077211535 REM COMMENT "Decca – 443 482-2" REM REPLAYGAIN_TRACK_GAIN 0.75 dB REM REPLAYGAIN_TRACK_PEAK 0.937469 INDEX 00 02:09:20FILE "17 Gabrieli (G): Quem Vidistis Pastores, C 77.flac" WAVE INDEX 01 00:00:00 TRACK 18 AUDIO TITLE "Gabrieli (G): Salvator Noster, C 80" PERFORMER "John Eliot Gardiner: Monteverdi Choir & Orchestra, Philip Jones Brass Ensemble" SONGWRITER "Giovanni Gabrieli" ISRC GBF077211536 REM COMMENT "Decca – 443 482-2" REM REPLAYGAIN_TRACK_GAIN -1.69 dB REM REPLAYGAIN_TRACK_PEAK 0.937469 INDEX 00 10:20:30FILE "18 Gabrieli (G): Salvator Noster, C 80.flac" WAVE INDEX 01 00:00:00 TRACK 19 AUDIO TITLE "Gabrieli (G): O Magnum Mysterium" PERFORMER "John Eliot Gardiner: Monteverdi Choir & Orchestra, Philip Jones Brass Ensemble" SONGWRITER "Giovanni Gabrieli" ISRC GBF077211538 REM COMMENT "Decca – 443 482-2" REM REPLAYGAIN_TRACK_GAIN -0.53 dB REM REPLAYGAIN_TRACK_PEAK 0.819336 INDEX 00 06:03:60FILE "19 Gabrieli (G): O Magnum Mysterium.flac" WAVE INDEX 01 00:00:00 TRACK 20 AUDIO TITLE "Monteverdi: Exultent Caeli, SV 304" PERFORMER "John Eliot Gardiner: Monteverdi Choir & Orchestra, Philip Jones Brass Ensemble" SONGWRITER "Claudio Monteverdi" ISRC GBF077211539 REM COMMENT "Decca – 443 482-2" REM REPLAYGAIN_TRACK_GAIN 0.90 dB REM REPLAYGAIN_TRACK_PEAK 0.869720 INDEX 00 04:39:55FILE "20 Monteverdi: Exultent Caeli, SV 304.flac" WAVE INDEX 01 00:00:00
[teatrix.ru].t7878.torrent 
Торрент: Зарегистрирован [ 2015-10-14 02:42 ] · BDAD13B0DACF3D19B7A343F88131B94D25D45141

Скачать .torrent

Скачать

15 KB

Статус: проверено
Скачан: 0 раз
Размер: 590 MB
terms.php



Быстрый ответ

Имя:

      
Для отправки сообщений необходимо включить JavaScript
Показать сообщения:    

Текущее время: 04-Дек 15:17

Часовой пояс: UTC + 3


Вы можете начинать темы
Вы можете отвечать на сообщения
Вы не можете редактировать свои сообщения
Вы не можете удалять свои сообщения
Вы не можете голосовать в опросах
Вы не можете прикреплять файлы к сообщениям
Вы можете скачивать файлы