(Classical) Cristofaro Caresana, Nicola Fago, Donenico Scarlatti, Gaetano Veneziano - Sacred music in early 18th-century Naples - I Turchini, Antonio Florio - 2012, FLAC (image+.cue) lossless


Статистика раздачи [Обновить пиров]
Размер:  316 MB   |    Зарегистрирован:  1 год 1 месяц   |    Скачан:  0 раз

Полного источника не было: Никогда

 
   
 
 
 

[Цитировать]

Cristofaro Caresana, Nicola Fago, Donenico Scarlatti, Gaetano Veneziano - Sacred music in early 18th-century Naples - I Turchini, Antonio Florio
Жанр: Classical
Страна-производитель диска: Spain
Год издания диска: 2012
Издатель (лейбл): Glossa
Номер по каталогу: GCD 922605
Дата записи: 2012
Аудиокодек: FLAC
Тип рипа: image+.cue
Битрейт аудио: lossless
Продолжительность: 63:22
Источник: собственный рип
Наличие сканов в содержимом раздачи: да
Треклист:
Il Tesoro di San Gennaro
Sacred music in early 18th-century Naples
Domenico Scarlatti (1685-1757)
[1]-[3] Sinfonia a 5 in do maggiore
Cristofaro Caresana (1640-1709)
[4] Canzona a 4 con istromenti “Per S. Gennaro” (Napoli 1702)
Nicola Fago (1677-1745)
[5] Confitebor a 3 con violini
[6]-[9] Stabat Mater a 4 voci e strumenti
Domenico Scarlatti
[10]-[13] Sinfonia a 4 in re maggiore
[14]-[19] Antra valles Divo plaudant (mottetto a 5 voci e strumenti) (Napoli 1701)
Gaetano Veneziano (1665-1716)
[20] Jam sol recedit (inno a voce sola con violini) (Napoli 1702)
[21] Iste confessor (inno a 2 voci, 4 violini e b.c.)
Domenico Scarlatti
[22]-[24] Sinfonia a 4 in sol maggiore
Gaetano Veneziano
[25] Ave Maris Stella (inno a voce sola con violini) (Napoli 1693)
Исполнители:
I Turchini
Antonio Florio

Лог создания рипа

Exact Audio Copy V1.0 beta 3 from 29. August 2011
EAC extraction logfile from 21. September 2014, 18:46
I Turchini, Antonio Florio / Il Tesoro di San Gennaro
Used drive : HL-DT-STDVDRAM GU70N Adapter: 0 ID: 0
Read mode : SecureUtilize accurate stream : YesDefeat audio cache : YesMake use of C2 pointers : No
Read offset correction : 48Overread into Lead-In and Lead-Out : NoFill up missing offset samples with silence : YesDelete leading and trailing silent blocks : NoNull samples used in CRC calculations : YesUsed interface : Native Win32 interface for Win NT & 2000
Used output format : User Defined EncoderSelected bitrate : 128 kBit/sQuality : HighAdd ID3 tag : NoCommand line compressor : C:\Program Files (x86)\Exact Audio Copy\Flac\flac.exeAdditional command line options : -V -8 -T "Date=%year%" -T "Genre=%genre%" %source%
TOC of the extracted CD
Track | Start | Length | Start sector | End sector --------------------------------------------------------- 1 | 0:00.00 | 0:50.61 | 0 | 3810 2 | 0:50.61 | 1:13.21 | 3811 | 9306 3 | 2:04.07 | 1:37.15 | 9307 | 16596 4 | 3:41.22 | 6:39.65 | 16597 | 46586 5 | 10:21.12 | 4:01.19 | 46587 | 64680 6 | 14:22.31 | 3:51.56 | 64681 | 82061 7 | 18:14.12 | 4:53.01 | 82062 | 104037 8 | 23:07.13 | 2:31.64 | 104038 | 115426 9 | 25:39.02 | 2:36.11 | 115427 | 127137 10 | 28:15.13 | 0:27.43 | 127138 | 129205 11 | 28:42.56 | 2:15.73 | 129206 | 139403 12 | 30:58.54 | 0:40.37 | 139404 | 142440 13 | 31:39.16 | 0:36.36 | 142441 | 145176 14 | 32:15.52 | 1:57.11 | 145177 | 153962 15 | 34:12.63 | 3:19.27 | 153963 | 168914 16 | 37:32.15 | 4:07.60 | 168915 | 187499 17 | 41:40.00 | 2:02.56 | 187500 | 196705 18 | 43:42.56 | 2:58.60 | 196706 | 210115 19 | 46:41.41 | 2:01.01 | 210116 | 219191 20 | 48:42.42 | 3:35.01 | 219192 | 235317 21 | 52:17.43 | 4:19.52 | 235318 | 254794 22 | 56:37.20 | 0:43.01 | 254795 | 258020 23 | 57:20.21 | 0:46.19 | 258021 | 261489 24 | 58:06.40 | 0:57.07 | 261490 | 265771 25 | 59:03.47 | 4:20.59 | 265772 | 285330
Range status and errors
Selected range
Filename C:\temp\GCD 922605 Il Tesoro di San Gennaro (I Turchini, Antonio Florio)\Il Tesoro di San Gennaro.wav
Peak level 96.0 % Extraction speed 2.1 X Range quality 99.9 % Test CRC 67AB7722 Copy CRC 67AB7722 Copy OK
No errors occurred
AccurateRip summary
Track 1 accurately ripped (confidence 2) [0A8905EF] (AR v1)Track 2 accurately ripped (confidence 2) [078038CD] (AR v1)Track 3 accurately ripped (confidence 2) [C2FAF743] (AR v1)Track 4 accurately ripped (confidence 2) [D2573E46] (AR v1)Track 5 accurately ripped (confidence 2) [2A429098] (AR v1)Track 6 accurately ripped (confidence 2) [C8D27E01] (AR v1)Track 7 accurately ripped (confidence 2) [4AB070A8] (AR v1)Track 8 accurately ripped (confidence 2) [32C54975] (AR v1)Track 9 accurately ripped (confidence 2) [FA2238B2] (AR v1)Track 10 accurately ripped (confidence 2) [7836E4CB] (AR v1)Track 11 accurately ripped (confidence 2) [047AACE8] (AR v1)Track 12 accurately ripped (confidence 2) [2DA9FAC1] (AR v1)Track 13 accurately ripped (confidence 2) [9AD0ABBA] (AR v1)Track 14 accurately ripped (confidence 2) [C3E72A58] (AR v1)Track 15 accurately ripped (confidence 2) [BEC8167F] (AR v1)Track 16 accurately ripped (confidence 2) [F94A626D] (AR v1)Track 17 accurately ripped (confidence 2) [70E271B8] (AR v1)Track 18 accurately ripped (confidence 2) [64ACFF7C] (AR v1)Track 19 accurately ripped (confidence 2) [66FB0F18] (AR v1)Track 20 accurately ripped (confidence 2) [673849F5] (AR v1)Track 21 accurately ripped (confidence 2) [45477565] (AR v1)Track 22 accurately ripped (confidence 2) [90699217] (AR v1)Track 23 accurately ripped (confidence 2) [1701D67B] (AR v1)Track 24 accurately ripped (confidence 2) [1E744F8D] (AR v1)Track 25 accurately ripped (confidence 2) [E304D83A] (AR v1)
All tracks accurately ripped
End of status report
==== Log checksum 217CD543CEF0199074482888D7C3DE95C02E241910E81FE73FD11319CF139EA0 ====
[teatrix.ru].t7879.torrent 
Торрент: Зарегистрирован [ 2015-10-14 02:42 ] · B228C20FBD8F220CB98FB98E605DF819D7DFAFB0

Скачать .torrent

Скачать

26 KB

Статус: проверено
Скачан: 0 раз
Размер: 316 MB
terms.php



Быстрый ответ

Имя:

      
Для отправки сообщений необходимо включить JavaScript
Показать сообщения:    

Текущее время: 08-Дек 19:11

Часовой пояс: UTC + 3


Вы можете начинать темы
Вы можете отвечать на сообщения
Вы не можете редактировать свои сообщения
Вы не можете удалять свои сообщения
Вы не можете голосовать в опросах
Вы не можете прикреплять файлы к сообщениям
Вы можете скачивать файлы