(Classical) Георг Фридрих Гендель / George Frideric Handel: Dixit Dominus • Агостино Стеффани / Agostino Steffani: Stabat Mater - The Sixteen, Harry Christophers - 2009, FLAC (image+.cue) lossless


Статистика раздачи [Обновить пиров]
Размер:  277 MB   |    Зарегистрирован:  1 год 1 месяц   |    Скачан:  0 раз

Полного источника не было: Никогда

 
   
 
 
 

[Цитировать]

Handel: Dixit Dominus • Steffani: Stabat Mater - The Sixteen, Harry Christophers
Жанр: Classical
Страна-производитель диска: UK
Год издания диска: 2009
Издатель (лейбл): Coro
Номер по каталогу: COR16076
Дата записи: 2009
Аудиокодек: FLAC
Тип рипа: image+.cue
Битрейт аудио: lossless
Продолжительность: 60:10
Источник: собственный рип
Наличие сканов в содержимом раздачи: да
Треклист:
Agostino Steffani (1654-1728)
[1]-[12] Stabat Mater dolorosa
Elin Manahan Thomas & Grace Davidson soprano
Jeremy Budd & Mark Dobell tenor
Rob Macdonald bass
George Frideric Handel (1685-1759)
[13]-[21] Dixit Dominus, HWV 232
Elin Manahan Thomas & Grace Davidson soprano
Ruth Massey alto
Jeremy Budd & Mark Dobell tenor
Eamonn Dougan bass
Исполнители:
The Sixteen
Harry Christophers

Лог создания рипа

Exact Audio Copy V1.0 beta 3 from 29. August 2011
EAC extraction logfile from 22. June 2014, 16:46
The Sixteen, Harry Christophers / Handel - Dixit Dominus; Steffani - Stabat Mater
Used drive : HL-DT-STDVDRAM GSA-4083N Adapter: 1 ID: 0
Read mode : SecureUtilize accurate stream : YesDefeat audio cache : YesMake use of C2 pointers : No
Read offset correction : 667Overread into Lead-In and Lead-Out : NoFill up missing offset samples with silence : YesDelete leading and trailing silent blocks : NoNull samples used in CRC calculations : YesUsed interface : Native Win32 interface for Win NT & 2000
Used output format : User Defined EncoderSelected bitrate : 896 kBit/sQuality : HighAdd ID3 tag : NoCommand line compressor : C:\Program Files\Exact Audio Copy\Flac\flac.exeAdditional command line options : -V -8 %source%
TOC of the extracted CD
Track | Start | Length | Start sector | End sector --------------------------------------------------------- 1 | 0:00.00 | 1:56.69 | 0 | 8768 2 | 1:56.69 | 2:12.48 | 8769 | 18716 3 | 4:09.42 | 3:04.25 | 18717 | 32541 4 | 7:13.67 | 1:34.16 | 32542 | 39607 5 | 8:48.08 | 1:13.46 | 39608 | 45128 6 | 10:01.54 | 5:47.28 | 45129 | 71181 7 | 15:49.07 | 2:32.57 | 71182 | 82638 8 | 18:21.64 | 1:35.59 | 82639 | 89822 9 | 19:57.48 | 1:17.23 | 89823 | 95620 10 | 21:14.71 | 1:00.43 | 95621 | 100163 11 | 22:15.39 | 1:39.53 | 100164 | 107641 12 | 23:55.17 | 3:52.61 | 107642 | 125102 13 | 27:48.03 | 5:15.11 | 125103 | 148738 14 | 33:03.14 | 3:11.52 | 148739 | 163115 15 | 36:14.66 | 3:02.68 | 163116 | 176833 16 | 39:17.59 | 2:08.62 | 176834 | 186495 17 | 41:26.46 | 1:43.54 | 186496 | 194274 18 | 43:10.25 | 2:51.25 | 194275 | 207124 19 | 46:01.50 | 3:38.60 | 207125 | 223534 20 | 49:40.35 | 4:22.32 | 223535 | 243216 21 | 54:02.67 | 6:07.56 | 243217 | 270797
Range status and errors
Selected range
Filename J:\New Music\Handel - Dixit Dominus; Steffani - Stabat Mater (The Sixteen)\Handel - Dixit Dominus; Steffani - Stabat Mater.wav
Peak level 98.5 % Extraction speed 3.4 X Range quality 100.0 % Test CRC 506ED6F0 Copy CRC 506ED6F0 Copy OK
No errors occurred
AccurateRip summary
Track 1 accurately ripped (confidence 2) [637331C5] (AR v2)Track 2 accurately ripped (confidence 2) [181A6422] (AR v2)Track 3 accurately ripped (confidence 2) [2BC54C14] (AR v2)Track 4 accurately ripped (confidence 2) [3FDD215E] (AR v2)Track 5 accurately ripped (confidence 2) [6AA79252] (AR v2)Track 6 accurately ripped (confidence 2) [E62BF535] (AR v2)Track 7 accurately ripped (confidence 2) [EC3F161D] (AR v2)Track 8 accurately ripped (confidence 2) [80E2CD21] (AR v2)Track 9 accurately ripped (confidence 2) [3D2702B1] (AR v2)Track 10 accurately ripped (confidence 2) [CC3B50C0] (AR v2)Track 11 accurately ripped (confidence 2) [65AECAB6] (AR v2)Track 12 accurately ripped (confidence 2) [FECBE335] (AR v2)Track 13 accurately ripped (confidence 2) [E0BAB3F6] (AR v2)Track 14 accurately ripped (confidence 2) [60E48FC9] (AR v2)Track 15 accurately ripped (confidence 2) [830D893A] (AR v2)Track 16 accurately ripped (confidence 2) [0622073D] (AR v2)Track 17 accurately ripped (confidence 2) [303CA804] (AR v2)Track 18 accurately ripped (confidence 2) [0887BF0E] (AR v2)Track 19 accurately ripped (confidence 2) [FBC0D8A2] (AR v2)Track 20 accurately ripped (confidence 2) [68653A51] (AR v2)Track 21 accurately ripped (confidence 2) [FE06D8DB] (AR v2)
All tracks accurately ripped
End of status report
==== Log checksum 3A580899BA9E9AC171DCE49C057B03784FA201BB0F26F4CD0A29B7FCED0F9BEF ====
[teatrix.ru].t7880.torrent 
Торрент: Зарегистрирован [ 2015-10-14 02:42 ] · F081B753D0D1609A4F150AFE6FF430DFA8145EFD

Скачать .torrent

Скачать

23 KB

Статус: проверено
Скачан: 0 раз
Размер: 277 MB
terms.php



Быстрый ответ

Имя:

      
Для отправки сообщений необходимо включить JavaScript
Показать сообщения:    

Текущее время: 10-Дек 10:00

Часовой пояс: UTC + 3


Вы можете начинать темы
Вы можете отвечать на сообщения
Вы не можете редактировать свои сообщения
Вы не можете удалять свои сообщения
Вы не можете голосовать в опросах
Вы не можете прикреплять файлы к сообщениям
Вы можете скачивать файлы