(Classical) Giovanni Gabrieli - Sacred Symphonies - Ex Cathedra, His Majestys Sagbutts & Cornetts, Concerto Palatino, Jeffrey Skidmore - 2012, FLAC (image+.cue) lossless


Статистика раздачи [Обновить пиров]
Размер:  305 MB   |    Зарегистрирован:  1 год 1 месяц   |    Скачан:  0 раз

Полного источника не было: Никогда

 
   
 
 
 

[Цитировать]

Giovanni Gabrieli - Sacred Symphonies - Ex Cathedra, His Majestys Sagbutts & Cornetts, Concerto Palatino, Jeffrey Skidmore
Жанр: Classical
Страна-производитель диска: UK
Год издания диска: 2012
Издатель (лейбл): Hyperion
Номер по каталогу: CDA67957
Дата записи: 2012
Аудиокодек: FLAC
Тип рипа: image+.cue
Битрейт аудио: lossless
Продолжительность: 66:16
Источник: собственный рип
Наличие сканов в содержимом раздачи: да
Треклист:
Giovanni Gabrieli (c1554/7-1612)
[1] Vox Domini super aquas Jordanis a 10, C 64
[2] In ecclesiis a 14, C 78
[3] Canzon primi toni a 10, C 176
[4] O Jesu mi dulcissime a 8, C 24
[5] Omnes gentes plaudite manibus a 16, C 52
[6] O Jesu mi dulcissime a 8, C 56
[7] Kyrie a 5/8/12, C 71-73
[8] Maria virgo a 10, C 35
[9] Magnificat a 12, C 75
[10] Litaniae Beatae Mariae Virginis a 8, C 63
[11] Exultet iam angelica turba a 17, C 131
Исполнители:
Ex Cathedra
His Majestys Sagbutts & Cornetts
Concerto Palatino
Jeffrey Skidmore
conductor

Лог создания рипа

Exact Audio Copy V1.0 beta 3 from 29. August 2011
EAC extraction logfile from 26. November 2014, 9:06
Ex Cathedra, Jeffrey Skidmore / Gabrieli - Sacred Symphonies
Used drive : HL-DT-STDVDRAM GU70N Adapter: 0 ID: 0
Read mode : SecureUtilize accurate stream : YesDefeat audio cache : YesMake use of C2 pointers : No
Read offset correction : 48Overread into Lead-In and Lead-Out : NoFill up missing offset samples with silence : YesDelete leading and trailing silent blocks : NoNull samples used in CRC calculations : YesUsed interface : Native Win32 interface for Win NT & 2000
Used output format : User Defined EncoderSelected bitrate : 128 kBit/sQuality : HighAdd ID3 tag : NoCommand line compressor : C:\Program Files (x86)\Exact Audio Copy\Flac\flac.exeAdditional command line options : -V -8 -T "Date=%year%" -T "Genre=%genre%" %source%
TOC of the extracted CD
Track | Start | Length | Start sector | End sector --------------------------------------------------------- 1 | 0:00.00 | 5:52.61 | 0 | 26460 2 | 5:52.61 | 7:25.45 | 26461 | 59880 3 | 13:18.31 | 3:15.20 | 59881 | 74525 4 | 16:33.51 | 5:07.56 | 74526 | 97606 5 | 21:41.32 | 4:01.30 | 97607 | 115711 6 | 25:42.62 | 6:21.61 | 115712 | 144347 7 | 32:04.48 | 6:43.73 | 144348 | 174645 8 | 38:48.46 | 4:56.14 | 174646 | 196859 9 | 43:44.60 | 5:38.00 | 196860 | 222209 10 | 49:22.60 | 12:10.26 | 222210 | 276985 11 | 61:33.11 | 4:41.62 | 276986 | 298122
Range status and errors
Selected range
Filename C:\temp\CDA67957 - Gabrieli - Sacred Symphonies\Gabrieli - Sacred Symphonies.wav
Peak level 98.2 % Extraction speed 2.2 X Range quality 100.0 % Test CRC D403BC85 Copy CRC D403BC85 Copy OK
No errors occurred
AccurateRip summary
Track 1 accurately ripped (confidence 3) [EB682FBA] (AR v2)Track 2 accurately ripped (confidence 3) [00C155B5] (AR v2)Track 3 accurately ripped (confidence 3) [5A042004] (AR v2)Track 4 accurately ripped (confidence 3) [0EDB6CD5] (AR v2)Track 5 accurately ripped (confidence 3) [D9B9AE4D] (AR v2)Track 6 accurately ripped (confidence 3) [4CE50464] (AR v2)Track 7 accurately ripped (confidence 3) [93DCB39A] (AR v2)Track 8 accurately ripped (confidence 3) [D6BFC02E] (AR v2)Track 9 accurately ripped (confidence 3) [BD7FA323] (AR v2)Track 10 accurately ripped (confidence 3) [7CBD7192] (AR v2)Track 11 accurately ripped (confidence 3) [D3F2AAD1] (AR v2)
All tracks accurately ripped
End of status report
==== Log checksum A16C7701395B84DA53C71774CCF16C6190CDC7C42DF2CB5EF2B568C233D5FEA6 ====
[teatrix.ru].t7881.torrent 
Торрент: Зарегистрирован [ 2015-10-14 02:42 ] · 9EDF4328FD2B0FBD892083D5961D7AAF66B9E307

Скачать .torrent

Скачать

25 KB

Статус: проверено
Скачан: 0 раз
Размер: 305 MB
terms.php



Быстрый ответ

Имя:

      
Для отправки сообщений необходимо включить JavaScript
Показать сообщения:    

Текущее время: 09-Дек 22:22

Часовой пояс: UTC + 3


Вы можете начинать темы
Вы можете отвечать на сообщения
Вы не можете редактировать свои сообщения
Вы не можете удалять свои сообщения
Вы не можете голосовать в опросах
Вы не можете прикреплять файлы к сообщениям
Вы можете скачивать файлы