(Classical) Lully - Te Deum, Dies Irae (Smith, Bessac, Vandersteene, Devos, Huttenlocher; Jean-Francios Paillard) - ?, FLAC (image+.cue) lossless


Статистика раздачи [Обновить пиров]
Размер:  306 MB   |    Зарегистрирован:  1 год 1 месяц   |    Скачан:  0 раз

Полного источника не было: Никогда

 
   
 
 
 

[Цитировать]

Lully - Te Deum, Dies Irae (Smith, Bessac, Vandersteene, Devos, Huttenlocher; Jean-Francios Paillard)
Жанр: Classical
Страна-производитель диска: Российская Федерация
Год издания диска: ?
Издатель (лейбл): Elite Classics
Номер по каталогу: AS-255-A
Дата записи: 1977
Аудиокодек: FLAC
Тип рипа: image+.cue
Битрейт аудио: lossless
Продолжительность: 62:27
Источник: собственный рип
Наличие сканов в содержимом раздачи: да
Треклист:
Lully
1-4. Te Deum
5-17. Dies Irae
Исполнители:
Jennifer Smith - soprano : Francine Bessac - 2nd soprano
Zeger Vandersteene - counter-tenot : Louis Devos - tenor
Philippe Huttenlocher - bass
Vocal Ensemble "A Coeur Joie" of Valence Orchestra,
Jean-Francios Paillard

Лог создания рипа

Exact Audio Copy V1.0 beta 3 from 29. August 2011
EAC extraction logfile from 24. November 2014, 23:03
Lully - Paillard / Erato 0630-1126-2
Used drive : HL-DT-STDVDRAM GSA-T40N Adapter: 0 ID: 0
Read mode : SecureUtilize accurate stream : YesDefeat audio cache : YesMake use of C2 pointers : No
Read offset correction : 667Overread into Lead-In and Lead-Out : NoFill up missing offset samples with silence : YesDelete leading and trailing silent blocks : NoNull samples used in CRC calculations : YesUsed interface : Native Win32 interface for Win NT & 2000
Used output format : User Defined EncoderSelected bitrate : 32 kBit/sQuality : HighAdd ID3 tag : NoCommand line compressor : C:\Program Files\Exact Audio Copy\Flac\flac.exeAdditional command line options : -V -8 -T "Date=%year%" -T "Genre=%genre%" %source%
TOC of the extracted CD
Track | Start | Length | Start sector | End sector --------------------------------------------------------- 1 | 0:00.00 | 10:37.05 | 0 | 47779 2 | 10:37.05 | 9:12.55 | 47780 | 89234 3 | 19:49.60 | 10:43.10 | 89235 | 137469 4 | 30:32.70 | 9:31.70 | 137470 | 180364 5 | 40:04.65 | 1:56.10 | 180365 | 189074 6 | 42:01.00 | 1:01.62 | 189075 | 193711 7 | 43:02.62 | 0:49.10 | 193712 | 197396 8 | 43:51.72 | 0:42.05 | 197397 | 200551 9 | 44:34.02 | 0:46.73 | 200552 | 204074 10 | 45:21.00 | 1:53.25 | 204075 | 212574 11 | 47:14.25 | 1:07.15 | 212575 | 217614 12 | 48:21.40 | 0:42.57 | 217615 | 220821 13 | 49:04.22 | 4:13.38 | 220822 | 239834 14 | 53:17.60 | 1:50.47 | 239835 | 248131 15 | 55:08.32 | 1:15.70 | 248132 | 253826 16 | 56:24.27 | 3:24.45 | 253827 | 269171 17 | 59:48.72 | 2:38.73 | 269172 | 281094
Range status and errors
Selected range
Filename D:\Rip\Lully.Te_Deum,Dies_Irae-Paillard,1977(Elite)\Lully - Paillard - Erato 0630-1126-2.wav
Peak level 100.0 % Extraction speed 4.1 X Range quality 99.9 % Test CRC FD7DAF64 Copy CRC FD7DAF64 Copy OK
No errors occurred
AccurateRip summary
Track 1 cannot be verified as accurate (confidence 2) [1504AB39], AccurateRip returned [9B071523] (AR v2)Track 2 cannot be verified as accurate (confidence 2) [35A945F6], AccurateRip returned [6C7074EC] (AR v2)Track 3 cannot be verified as accurate (confidence 2) [26371761], AccurateRip returned [64F8C5CA] (AR v2)Track 4 cannot be verified as accurate (confidence 2) [338ED06F], AccurateRip returned [14AAA42E] (AR v2)Track 5 cannot be verified as accurate (confidence 2) [D6F109C3], AccurateRip returned [EE577B15] (AR v2)Track 6 cannot be verified as accurate (confidence 2) [457F7B11], AccurateRip returned [3DC2E3F5] (AR v2)Track 7 cannot be verified as accurate (confidence 2) [9921BE43], AccurateRip returned [01CFD9CE] (AR v2)Track 8 cannot be verified as accurate (confidence 2) [9CE3A3DC], AccurateRip returned [3A1BE6C1] (AR v2)Track 9 cannot be verified as accurate (confidence 2) [B539DC95], AccurateRip returned [DEF4F2DF] (AR v2)Track 10 cannot be verified as accurate (confidence 2) [264D5E5A], AccurateRip returned [CAA4245F] (AR v2)Track 11 cannot be verified as accurate (confidence 2) [2A9EBE21], AccurateRip returned [BB71FC30] (AR v2)Track 12 cannot be verified as accurate (confidence 2) [D9E52ABD], AccurateRip returned [C845F719] (AR v2)Track 13 cannot be verified as accurate (confidence 2) [505ABBAB], AccurateRip returned [CA835E4A] (AR v2)Track 14 cannot be verified as accurate (confidence 2) [2A8BFEBC], AccurateRip returned [B0300A99] (AR v2)Track 15 cannot be verified as accurate (confidence 2) [EDC5B501], AccurateRip returned [0BCA685B] (AR v2)Track 16 accurately ripped (confidence 1) [A04C4B78] (AR v1)Track 17 cannot be verified as accurate (confidence 2) [F6D5B6F5], AccurateRip returned [E0596C7A] (AR v2)
1 трек(и) скопированы точно16 трек(и) не удалось проверить на точность
Some tracks could not be verified as accurate
End of status report
==== Log checksum 0666630060D01F3F7967CE22E4FBAC10574BBAC92DCF6BA0603DADD0D981466C ====

Содержание индексной карты (.CUE)

REM GENRE ClassicalREM DATE 1977REM DISCID 050EA311REM COMMENT "ExactAudioCopy v1.0b3"PERFORMER "Lully - Paillard"TITLE "Erato 0630-1126-2"FILE "Lully - Paillard - Erato 0630-1126-2.flac" WAVE TRACK 01 AUDIO TITLE "Te Deum - I. Symphonie - Te Deum" PERFORMER "Lully - Paillard" INDEX 01 00:00:00 TRACK 02 AUDIO TITLE "Te Deum - II. Patrem immensae majestatis" PERFORMER "Lully - Paillard" INDEX 00 10:36:42 INDEX 01 10:37:05 TRACK 03 AUDIO TITLE "Te Deum - III. Symphonie - Te ergo quaesumus" PERFORMER "Lully - Paillard" INDEX 01 19:49:60 TRACK 04 AUDIO TITLE "Te Deum - IV. Symphonie - Dignare Domine" PERFORMER "Lully - Paillard" INDEX 01 30:32:70 TRACK 05 AUDIO TITLE "Dies Irae - Dies Irae" PERFORMER "Lully - Paillard" INDEX 00 39:59:02 INDEX 01 40:04:65 TRACK 06 AUDIO TITLE "Dies Irae - Tuba mirum" PERFORMER "Lully - Paillard" INDEX 01 42:01:00 TRACK 07 AUDIO TITLE "Dies Irae - Mors stupebit" PERFORMER "Lully - Paillard" INDEX 01 43:02:62 TRACK 08 AUDIO TITLE "Dies Irae - Liber scriptus" PERFORMER "Lully - Paillard" INDEX 01 43:51:72 TRACK 09 AUDIO TITLE "Dies Irae - Quid sum miser tunc dicturus" PERFORMER "Lully - Paillard" INDEX 01 44:34:02 TRACK 10 AUDIO TITLE "Dies Irae - Rex tremendae" PERFORMER "Lully - Paillard" INDEX 01 45:21:00 TRACK 11 AUDIO TITLE "Dies Irae - Quaerens me sedisti Iassus" PERFORMER "Lully - Paillard" INDEX 01 47:14:25 TRACK 12 AUDIO TITLE "Dies Irae - Juste judex ultionis" PERFORMER "Lully - Paillard" INDEX 01 48:21:40 TRACK 13 AUDIO TITLE "Dies Irae - Ingemisco tanquam reus" PERFORMER "Lully - Paillard" INDEX 01 49:04:22 TRACK 14 AUDIO TITLE "Dies Irae - Confutatis maledictis" PERFORMER "Lully - Paillard" INDEX 01 53:17:60 TRACK 15 AUDIO TITLE "Dies Irae - Oro supplex et acclinis" PERFORMER "Lully - Paillard" INDEX 01 55:08:32 TRACK 16 AUDIO TITLE "Dies Irae - Lacrymosa dies illa" PERFORMER "Lully - Paillard" INDEX 01 56:24:27 TRACK 17 AUDIO TITLE "Dies Irae - Pie Jesu Domine" PERFORMER "Lully - Paillard" INDEX 01 59:48:72
[teatrix.ru].t7882.torrent 
Торрент: Зарегистрирован [ 2015-10-14 02:42 ] · 9B24398C0E535550BA4E7889B6A9246577F2EEEE

Скачать .torrent

Скачать

13 KB

Статус: проверено
Скачан: 0 раз
Размер: 306 MB
terms.php



Быстрый ответ

Имя:

      
Для отправки сообщений необходимо включить JavaScript
Показать сообщения:    

Текущее время: 10-Дек 13:52

Часовой пояс: UTC + 3


Вы можете начинать темы
Вы можете отвечать на сообщения
Вы не можете редактировать свои сообщения
Вы не можете удалять свои сообщения
Вы не можете голосовать в опросах
Вы не можете прикреплять файлы к сообщениям
Вы можете скачивать файлы