(Classical) Handel - L'Allegro, il Penseroso ed il Moderato (Lynne Dawson, David Daniels, Ian Bostridge, Alastair Miles; John Nelson) - 2000, FLAC (image+.cue) lossless


Статистика раздачи [Обновить пиров]
Размер:  606 MB   |    Зарегистрирован:  1 год 1 месяц   |    Скачан:  1 раз

Полного источника не было: 2 месяца 9 дней

 
   
 
 
 

[Цитировать]

Handel - L'Allegro, il Penseroso ed il Moderato (John Nelson)
Жанр: Classical
Страна-производитель диска: EU
Год издания диска: 2000
Издатель (лейбл): Virgin Classics
Номер по каталогу: 7243 5 45417 2 8
Дата записи: 1999
Аудиокодек: FLAC
Тип рипа: image+.cue
Битрейт аудио: lossless
Продолжительность: 55:00, 63:14
Источник: собственный рип
сайт-источник/ник/другое: Из личной коллекции
Наличие сканов в содержимом раздачи: да
Треклист:

скрытый текст

Part 1
01 L'Allegro- Hence,loathed Melancholy
02 Il Penseroso- Hence, vain deluding joys
03 L'Allegro- Come, thou goddess fair and free
04 Il Penseroso- Come rather goddess sage and holy
05 L'Allegro- Haste theee nymph
06 L'Allegro- Come and trip it as you go
07 Il Penseroso- Come pensive nun
08 Il Penseroso- Come, but keep thy wonted state
09 Il Penseroso- There held in holy passion still
10 L'Allegro- Hence loathed Melancholy - Mirth, admit me
11 Il Penseroso- First, and chief, on golden wing
12 Il Penseroso- Sweet bird, that shunn'st
13 L'Allegro- If I give thee honour due
14 Il Penseroso- Of on a plate of rising ground
15 Il Penseroso- Far from all resort of mirth
16 L'Allegro- If I give thee honour due
17 L'Allegro- Straight mine eye hath caught new pleasures
18 L'Allegro- Mountains on whose barren breast
19 L'Allegro- Or let the merry bells ring round
Part 2
01 Il Penseroso- Hence, vain deluding joys
02 Il Penseroso- Sometimes let gorgous Tragedy
03 Il Penseroso- But oh! daid virgin, that thy power
04 Thus, Night, oft see me in thy pale career
05 L'Allegro- There let Hymen oft appear
06 Il PEnseroso- Me, when the sun gebins to fling
07 Hide me from Day's garish eye
08 L'Allegro- I'll to the well trod stage anon
09 L'Allegro- And never against eating cares
10 L'Allegro- Orpheus' self may heave his head
11 L'Allegro- These delights, if thou canst give
12 Il Penseroso- But let my due feet never fail
13 Il Penseroso- May at least my weary age
14 Il Penseroso- These pleasures, Melancholy, give
15 Il Moderato- Hence boast not ye profane
16 Il Moderato- Come with native lustre shine
17 Il Moderato- Sweet Temp'rance in thy right hand bear
18 Il Moderato- Come, with gentle hand restrain
19 Il Moderato- No more short life they then will spend
20 As steals the morn upon the night
21 Il Moderato- Thy pleasures, Moderation give
Исполнители:
George Frideric Handel
L'Allegro, il Penseroso ed il Moderato
Pastoral Ode, Oratorio, HWV 55
Written: by 1740; London, England
Lynne Dawson (Soprano)
David Daniels (Countertenor)
Christine Brandes (Soprano)
Ian Bostridge (Tenor)
Alastair Miles (Bass)
Bach Choir
Orchestre de Paris Ensemble
Conductor: John Nelson

Лог создания рипа

CD1

CD1
Exact Audio Copy V1.0 beta 3 from 29. August 2011
EAC extraction logfile from 1. December 2014, 20:23
Handel / L'Allegro, il Penseroso ed il Moderato
Used drive : HL-DT-STDVDRAM GSA-T40N Adapter: 0 ID: 0
Read mode : Secure
Utilize accurate stream : Yes
Defeat audio cache : Yes
Make use of C2 pointers : No
Read offset correction : 667
Overread into Lead-In and Lead-Out : No
Fill up missing offset samples with silence : Yes
Delete leading and trailing silent blocks : No
Null samples used in CRC calculations : Yes
Used interface : Native Win32 interface for Win NT & 2000
Used output format : User Defined Encoder
Selected bitrate : 32 kBit/s
Quality : High
Add ID3 tag : No
Command line compressor : C:\Program Files\Exact Audio Copy\Flac\flac.exe
Additional command line options : -V -8 -T "Date=%year%" -T "Genre=%genre%" %source%
TOC of the extracted CD
Track | Start | Length | Start sector | End sector
---------------------------------------------------------
1 | 0:00.00 | 2:08.44 | 0 | 9643
2 | 2:08.44 | 0:52.58 | 9644 | 13601
3 | 3:01.27 | 1:31.31 | 13602 | 20457
4 | 4:32.58 | 2:51.45 | 20458 | 33327
5 | 7:24.28 | 2:25.61 | 33328 | 44263
6 | 9:50.14 | 2:30.42 | 44264 | 55555
7 | 12:20.56 | 1:10.35 | 55556 | 60840
8 | 13:31.16 | 1:32.14 | 60841 | 67754
9 | 15:03.30 | 3:51.04 | 67755 | 85083
10 | 18:54.34 | 4:04.57 | 85084 | 103440
11 | 22:59.16 | 1:04.18 | 103441 | 108258
12 | 24:03.34 | 12:34.67 | 108259 | 164875
13 | 36:38.26 | 2:32.64 | 164876 | 176339
14 | 39:11.15 | 3:20.61 | 176340 | 191400
15 | 42:32.01 | 3:31.10 | 191401 | 207235
16 | 46:03.11 | 1:38.53 | 207236 | 214638
17 | 47:41.64 | 2:08.38 | 214639 | 224276
18 | 49:50.27 | 1:22.21 | 224277 | 230447
19 | 51:12.48 | 3:47.55 | 230448 | 247527
Range status and errors
Selected range
Filename D:\Rip\Handel.L'Allegro,il_Penseroso_ed_il_Moderato-John_Nelson,1999.2CD(Virgin,45417)\CD1\Handel - L'Allegro, il Penseroso ed il Moderato.wav
Peak level 100.0 %
Extraction speed 4.0 X
Range quality 100.0 %
Test CRC 5BFE6315
Copy CRC 5BFE6315
Copy OK
No errors occurred
AccurateRip summary
Track 1 accurately ripped (confidence 10) [86EAE7D5] (AR v1)
Track 2 accurately ripped (confidence 10) [D81100E8] (AR v1)
Track 3 accurately ripped (confidence 10) [6849253D] (AR v1)
Track 4 accurately ripped (confidence 9) [44279988] (AR v1)
Track 5 accurately ripped (confidence 10) [4589D59A] (AR v1)
Track 6 accurately ripped (confidence 10) [B90123B1] (AR v1)
Track 7 accurately ripped (confidence 10) [B89373AB] (AR v1)
Track 8 accurately ripped (confidence 10) [0DAA8102] (AR v1)
Track 9 accurately ripped (confidence 10) [0C552E78] (AR v1)
Track 10 accurately ripped (confidence 10) [C9638A66] (AR v1)
Track 11 accurately ripped (confidence 10) [30DAA206] (AR v1)
Track 12 accurately ripped (confidence 10) [915B759F] (AR v1)
Track 13 accurately ripped (confidence 10) [1F9965D2] (AR v1)
Track 14 accurately ripped (confidence 10) [21B2CD62] (AR v1)
Track 15 accurately ripped (confidence 10) [09157785] (AR v1)
Track 16 accurately ripped (confidence 10) [9B7BF692] (AR v1)
Track 17 accurately ripped (confidence 10) [396F814D] (AR v1)
Track 18 accurately ripped (confidence 10) [92DDBC38] (AR v1)
Track 19 accurately ripped (confidence 10) [CF2482CA] (AR v1)
All tracks accurately ripped
End of status report
==== Log checksum 8C813C3A3CDC731456FE5AB4F2790F508FB57B8C1EF58ED1E4A7EF8EFA57373D ====

CD2

CD2
Exact Audio Copy V1.0 beta 3 from 29. August 2011
EAC extraction logfile from 2. December 2014, 6:52
Handel / L'Allegro, il Penseroso ed il Moderato - (2/2)
Used drive : HL-DT-STDVDRAM GSA-T40N Adapter: 0 ID: 0
Read mode : Secure
Utilize accurate stream : Yes
Defeat audio cache : Yes
Make use of C2 pointers : No
Read offset correction : 667
Overread into Lead-In and Lead-Out : No
Fill up missing offset samples with silence : Yes
Delete leading and trailing silent blocks : No
Null samples used in CRC calculations : Yes
Used interface : Native Win32 interface for Win NT & 2000
Used output format : User Defined Encoder
Selected bitrate : 32 kBit/s
Quality : High
Add ID3 tag : No
Command line compressor : C:\Program Files\Exact Audio Copy\Flac\flac.exe
Additional command line options : -V -8 -T "Date=%year%" -T "Genre=%genre%" %source%
TOC of the extracted CD
Track | Start | Length | Start sector | End sector
---------------------------------------------------------
1 | 0:00.00 | 1:23.34 | 0 | 6258
2 | 1:23.34 | 3:34.41 | 6259 | 22349
3 | 4:58.00 | 5:50.10 | 22350 | 48609
4 | 10:48.10 | 3:45.41 | 48610 | 65525
5 | 14:33.51 | 2:12.01 | 65526 | 75426
6 | 16:45.52 | 0:48.19 | 75427 | 79045
7 | 17:33.71 | 3:39.08 | 79046 | 95478
8 | 21:13.04 | 1:55.28 | 95479 | 104131
9 | 23:08.32 | 2:37.34 | 104132 | 115940
10 | 25:45.66 | 2:42.25 | 115941 | 128115
11 | 28:28.16 | 3:13.68 | 128116 | 142658
12 | 31:42.09 | 2:43.24 | 142659 | 154907
13 | 34:25.33 | 5:09.45 | 154908 | 178127
14 | 39:35.03 | 4:00.20 | 178128 | 196147
15 | 43:35.23 | 0:29.14 | 196148 | 198336
16 | 44:04.37 | 2:49.42 | 198337 | 211053
17 | 46:54.04 | 2:35.43 | 211054 | 222721
18 | 49:29.47 | 1:52.21 | 222722 | 231142
19 | 51:21.68 | 2:54.07 | 231143 | 244199
20 | 54:16.00 | 5:54.61 | 244200 | 270810
21 | 60:10.61 | 3:06.05 | 270811 | 284765
Range status and errors
Selected range
Filename D:\Rip\Handel.L'Allegro,il_Penseroso_ed_il_Moderato-John_Nelson,1999.2CD(Virgin,45417)\CD2\Handel - L'Allegro, il Penseroso ed il Moderato - (2,2).wav
Peak level 100.0 %
Extraction speed 4.3 X
Range quality 100.0 %
Test CRC 221644E3
Copy CRC 221644E3
Copy OK
No errors occurred
AccurateRip summary
Track 1 accurately ripped (confidence 8) [236DC83F] (AR v1)
Track 2 accurately ripped (confidence 8) [537922E2] (AR v1)
Track 3 accurately ripped (confidence 8) [3D0C9F70] (AR v1)
Track 4 accurately ripped (confidence 8) [1DBDDAE4] (AR v1)
Track 5 accurately ripped (confidence 8) [513B2023] (AR v1)
Track 6 accurately ripped (confidence 8) [4FE76549] (AR v1)
Track 7 accurately ripped (confidence 8) [9E3597E4] (AR v1)
Track 8 accurately ripped (confidence 8) [CDBAB2CC] (AR v1)
Track 9 accurately ripped (confidence 8) [0C3466E9] (AR v1)
Track 10 accurately ripped (confidence 7) [626FBF75] (AR v1)
Track 11 accurately ripped (confidence 8) [D901F1FD] (AR v1)
Track 12 accurately ripped (confidence 8) [82B59A01] (AR v1)
Track 13 accurately ripped (confidence 8) [266110BB] (AR v1)
Track 14 accurately ripped (confidence 8) [652D6A2E] (AR v1)
Track 15 accurately ripped (confidence 8) [7930D61C] (AR v1)
Track 16 accurately ripped (confidence 8) [E3020DB9] (AR v1)
Track 17 accurately ripped (confidence 8) [2F421EE8] (AR v1)
Track 18 accurately ripped (confidence 8) [A90B601A] (AR v1)
Track 19 accurately ripped (confidence 8) [EBCFF174] (AR v1)
Track 20 accurately ripped (confidence 8) [4EF55AE3] (AR v1)
Track 21 accurately ripped (confidence 8) [3DEEA6D4] (AR v1)
All tracks accurately ripped
End of status report
==== Log checksum F53C7EA4143960207E665417A92FB67446E498970A86431168569DF521528A33 ====

Содержание индексной карты (.CUE)

CD1

CD1
REM GENRE Classical
REM DATE 2000
REM DISCID F60CE413
REM COMMENT "ExactAudioCopy v1.0b3"
PERFORMER "Handel"
TITLE "L'Allegro, il Penseroso ed il Moderato"
FILE "Handel - L'Allegro, il Penseroso ed il Moderato.flac" WAVE
TRACK 01 AUDIO
TITLE "Hence, loathed Melancholy"
PERFORMER "Handel"
INDEX 01 00:00:00
TRACK 02 AUDIO
TITLE "Hence, vain deluding joys"
PERFORMER "Handel"
INDEX 01 02:08:44
TRACK 03 AUDIO
TITLE "Come, thou goddess fair and free"
PERFORMER "Handel"
INDEX 01 03:01:27
TRACK 04 AUDIO
TITLE "Come rather goddess sage and holy"
PERFORMER "Handel"
INDEX 01 04:32:58
TRACK 05 AUDIO
TITLE "Haste thee nymph"
PERFORMER "Handel"
INDEX 01 07:24:28
TRACK 06 AUDIO
TITLE "Come, and trip it as you go"
PERFORMER "Handel"
INDEX 01 09:50:14
TRACK 07 AUDIO
TITLE "Come pensive nun"
PERFORMER "Handel"
INDEX 01 12:20:56
TRACK 08 AUDIO
TITLE "Come, but keep thy wonted state"
PERFORMER "Handel"
INDEX 01 13:31:16
TRACK 09 AUDIO
TITLE "There held in holy passion still"
PERFORMER "Handel"
INDEX 01 15:03:30
TRACK 10 AUDIO
TITLE "Hence, loathed Melancholy-And if I give thee honour due-Mirth, admit me of th..."
PERFORMER "Handel"
INDEX 01 18:54:34
TRACK 11 AUDIO
TITLE "First, and chief, on golden wing"
PERFORMER "Handel"
INDEX 01 22:59:16
TRACK 12 AUDIO
TITLE "Sweet bird, that shunn'st the noise of folly"
PERFORMER "Handel"
INDEX 01 24:03:34
TRACK 13 AUDIO
TITLE "If I give thee honour due-Mirth, admit me of thy crew"
PERFORMER "Handel"
INDEX 01 36:38:26
TRACK 14 AUDIO
TITLE "Oft on a plat of rising ground"
PERFORMER "Handel"
INDEX 01 39:11:15
TRACK 15 AUDIO
TITLE "Far from all resort of mirth"
PERFORMER "Handel"
INDEX 01 42:32:01
TRACK 16 AUDIO
TITLE "If I give thee hour due-Let me wander, not unseen"
PERFORMER "Handel"
INDEX 01 46:03:11
TRACK 17 AUDIO
TITLE "Straight mine eye hath caught new pleasures"
PERFORMER "Handel"
INDEX 01 47:41:64
TRACK 18 AUDIO
TITLE "Mountains on whose barren breast"
PERFORMER "Handel"
INDEX 01 49:50:27
TRACK 19 AUDIO
TITLE "Or let the merry bells ring round"
PERFORMER "Handel"
INDEX 01 51:12:48

CD2

CD2
REM GENRE Classical
REM DISCID 1D0ED415
REM COMMENT "ExactAudioCopy v1.0b3"
PERFORMER "Handel"
TITLE "L'Allegro, il Penseroso ed il Moderato - (2/2)"
FILE "Handel - L'Allegro, il Penseroso ed il Moderato - (2,2).flac" WAVE
TRACK 01 AUDIO
TITLE "Hence, vain deluding joys"
PERFORMER "Handel"
INDEX 01 00:00:00
TRACK 02 AUDIO
TITLE "Sometimes let gorgeous Tragedy"
PERFORMER "Handel"
INDEX 01 01:23:34
TRACK 03 AUDIO
TITLE "But oh! sad vergin, that thy power"
PERFORMER "Handel"
INDEX 01 04:58:00
TRACK 04 AUDIO
TITLE "Thus, Night, oft see me in thy pale career-Populous cities please me then"
PERFORMER "Handel"
INDEX 01 10:48:10
TRACK 05 AUDIO
TITLE "There let Hymen oft appear"
PERFORMER "Handel"
INDEX 01 14:33:51
TRACK 06 AUDIO
TITLE "Me, when the sun begins to fling"
PERFORMER "Handel"
INDEX 01 16:45:52
TRACK 07 AUDIO
TITLE "Hide me from Day's garish eye"
PERFORMER "Handel"
INDEX 01 17:33:71
TRACK 08 AUDIO
TITLE "I'll to the well-trod stage anon"
PERFORMER "Handel"
INDEX 01 21:13:04
TRACK 09 AUDIO
TITLE "And ever against eating cares"
PERFORMER "Handel"
INDEX 01 23:08:32
TRACK 10 AUDIO
TITLE "Orpheus' self may heave his head"
PERFORMER "Handel"
INDEX 01 25:45:66
TRACK 11 AUDIO
TITLE "These delights, if thou canst give"
PERFORMER "Handel"
INDEX 01 28:28:16
TRACK 12 AUDIO
TITLE "But let my due feet never fail-There let the pealing organ blow"
PERFORMER "Handel"
INDEX 01 31:42:09
TRACK 13 AUDIO
TITLE "May at last my weary age"
PERFORMER "Handel"
INDEX 01 34:25:33
TRACK 14 AUDIO
TITLE "These pleasures, Melancholy, give"
PERFORMER "Handel"
INDEX 01 39:35:03
TRACK 15 AUDIO
TITLE "Hence, boast not, ye profane"
PERFORMER "Handel"
INDEX 00 43:29:52
INDEX 01 43:35:23
TRACK 16 AUDIO
TITLE "Come, with native lustre shine"
PERFORMER "Handel"
INDEX 01 44:04:37
TRACK 17 AUDIO
TITLE "Sweet Temp'rance in thy right hand bear"
PERFORMER "Handel"
INDEX 01 46:54:04
TRACK 18 AUDIO
TITLE "Come, with gentle hand restrain"
PERFORMER "Handel"
INDEX 01 49:29:47
TRACK 19 AUDIO
TITLE "No more short life they then will spend-Each action will derive new grace"
PERFORMER "Handel"
INDEX 01 51:21:68
TRACK 20 AUDIO
TITLE "As steals the morn upon the night"
PERFORMER "Handel"
INDEX 01 54:16:00
TRACK 21 AUDIO
TITLE "Thy pleasures, Moderation, give"
PERFORMER "Handel"
INDEX 01 60:10:61
[teatrix.ru].t7883.torrent 
Торрент: Зарегистрирован [ 2015-10-14 02:42 ] · 141B7ABC56C275FDA0D199CC1AB794E5E350020F

Скачать .torrent

Скачать

14 KB

Статус: проверено
Скачан: 1 раз
Размер: 606 MB
terms.php



Быстрый ответ

Имя:

      
Для отправки сообщений необходимо включить JavaScript
Показать сообщения:    

Текущее время: 10-Дек 09:59

Часовой пояс: UTC + 3


Вы можете начинать темы
Вы можете отвечать на сообщения
Вы не можете редактировать свои сообщения
Вы не можете удалять свои сообщения
Вы не можете голосовать в опросах
Вы не можете прикреплять файлы к сообщениям
Вы можете скачивать файлы