(Choral) J.S.Bach - Messe h-moll (Alarie • Merriman • Simoneau • Neidlinger • Wiener Staatsopernorchester - Scherchen) - 2002, FLAC (image+.cue) lossless


Статистика раздачи [Обновить пиров]
Размер:  673 MB   |    Зарегистрирован:  1 год 1 месяц   |    Скачан:  0 раз

Полного источника не было: Никогда

 
   
 
 
 

[Цитировать]

bach messe h-moll
alarie • merriman • simoneau • neidlinger
wiener staatsopernorchester - scherchen
-
-
-
-
- Жанр: Choral
Страна-производитель диска: EU
Год издания диска: 2002
Издатель (лейбл): Westminster
Дата записи: 4 & 6/1959
Аудиокодек: FLAC
Тип рипа: image+.cue
Битрейт аудио: lossless
Продолжительность: 2:14'34''
Источник: собственный рип
Наличие сканов в содержимом раздачи: да
Треклист:

CD1

KYRIE
[01] Chorus: Kyrie eleison
[02] Duet (Soprano, Contralto): Christe eleison
[03] Chorus: Kyrie eleison
GLORIA
[04] Chorus: Gloria in excelsis
[05] Chorus: Et in terra pax
[06] Aria (Contralto): Laudmus te
[07] Chorus: Gratias agimus tibi
[08] Duet (Soprano Tenor): Domine dues
[09] Chorus: Qui tollis peccata mundi
[10] Aria (Contralto): Qui sedes ad dextram Patris
[11] Aria (Bass): Quoniam tu solus Sanctus
[12] Chorus: Cum Sancto Spiritu

Лог создания рипа

Exact Audio Copy V1.0 beta 3 from 29. August 2011
EAC extraction logfile from 27. November 2014, 21:06
Alarie - Merriman - Simoneau - Niedlinger - Scherchen / Bach - Messe h-moll (CD1)
Used drive : HL-DT-STDVD+-RW GU90N Adapter: 0 ID: 0
Read mode : SecureUtilize accurate stream : YesDefeat audio cache : YesMake use of C2 pointers : No
Read offset correction : 102Overread into Lead-In and Lead-Out : NoFill up missing offset samples with silence : YesDelete leading and trailing silent blocks : NoNull samples used in CRC calculations : YesUsed interface : Native Win32 interface for Win NT & 2000
Used output format : User Defined EncoderSelected bitrate : 1024 kBit/sQuality : HighAdd ID3 tag : NoCommand line compressor : C:\Program Files (x86)\FLAC\flac.exeAdditional command line options : -T "COMMENT=rip by el coronel" -8 -V %source%
TOC of the extracted CD
Track | Start | Length | Start sector | End sector --------------------------------------------------------- 1 | 0:00.00 | 14:49.26 | 0 | 66700 2 | 14:49.26 | 4:51.37 | 66701 | 88562 3 | 19:40.63 | 5:24.09 | 88563 | 112871 4 | 25:04.72 | 1:56.03 | 112872 | 121574 5 | 27:01.00 | 5:23.24 | 121575 | 145823 6 | 32:24.24 | 4:46.51 | 145824 | 167324 7 | 37:11.00 | 3:20.24 | 167325 | 182348 8 | 40:31.24 | 5:45.12 | 182349 | 208235 9 | 46:16.36 | 4:52.39 | 208236 | 230174 10 | 51:09.00 | 5:02.27 | 230175 | 252851 11 | 56:11.27 | 6:07.69 | 252852 | 280445 12 | 62:19.21 | 4:46.01 | 280446 | 301896
Range status and errors
Selected range
Filename F:\Music\Bach - Messe h-moll - Scherchen (Westminster)\CD1.wav
Peak level 91.2 % Extraction speed 5.0 X Range quality 100.0 % Test CRC 3C236905 Copy CRC 3C236905 Copy OK
No errors occurred
AccurateRip summary
Track 1 accurately ripped (confidence 7) [9BE3E7C5] (AR v2)Track 2 accurately ripped (confidence 7) [ADA0D68F] (AR v2)Track 3 accurately ripped (confidence 7) [29B8D1BC] (AR v2)Track 4 accurately ripped (confidence 7) [04E0B4B5] (AR v2)Track 5 accurately ripped (confidence 7) [A4146BA1] (AR v2)Track 6 accurately ripped (confidence 7) [62A5D534] (AR v2)Track 7 accurately ripped (confidence 7) [A55F5B22] (AR v2)Track 8 accurately ripped (confidence 7) [5AA28DBA] (AR v2)Track 9 accurately ripped (confidence 7) [EADA9B43] (AR v2)Track 10 accurately ripped (confidence 7) [929FAA78] (AR v2)Track 11 accurately ripped (confidence 7) [CF7C38BE] (AR v2)Track 12 accurately ripped (confidence 7) [AE693DA6] (AR v2)
All tracks accurately ripped
End of status report
==== Log checksum 6BD7D7F7F183A592C4222E30097D50DE5A5054A227BD1B5B57A2CFB46FB26934 ====

Содержание индексной карты (.CUE)

REM GENRE ChorusREM DATE 2002REM DISCID A40FB90CREM COMMENT ExactAudioCopy v1.0b3CATALOG 0028947125426PERFORMER "Alarie - Merriman - Simoneau - Neidlinger - Scherchen"TITLE "Bach - Messe h-moll (CD1)"FILE "CD1.flac" WAVE TRACK 01 AUDIO TITLE "Chorus: Kyrie eleison" ISRC DEF055933901 INDEX 01 00:00:00 TRACK 02 AUDIO TITLE "Duet (Soprano, Contralto): Christe eleison" ISRC DEF055933902 INDEX 01 14:49:26 TRACK 03 AUDIO TITLE "Chorus: Kyrie eleison" ISRC DEF055933902 INDEX 01 19:40:63 TRACK 04 AUDIO TITLE "Chorus: Gloria in excelsis" ISRC DEF055933904 INDEX 01 25:04:72 TRACK 05 AUDIO TITLE "Chorus: Et in terra pax" ISRC DEF055933905 INDEX 01 27:01:00 TRACK 06 AUDIO TITLE "Aria (Contralto): Laudmus te" ISRC DEF055933906 INDEX 01 32:24:24 TRACK 07 AUDIO TITLE "Chorus: Gratias agimus tibi" ISRC DEF055933907 INDEX 01 37:11:00 TRACK 08 AUDIO TITLE "Duet (Soprano Tenor): Domine dues" ISRC DEF055933908 INDEX 01 40:31:24 TRACK 09 AUDIO TITLE "Chorus: Qui tollis peccata mundi" ISRC DEF055933909 INDEX 01 46:16:36 TRACK 10 AUDIO TITLE "Aria (Contralto): Qui sedes ad dextram Patris" ISRC DEF055933910 INDEX 01 51:09:00 TRACK 11 AUDIO TITLE "Aria (Bass): Quoniam tu solus Sanctus" ISRC DEF055933911 INDEX 01 56:11:27 TRACK 12 AUDIO TITLE "Chorus: Cum Sancto Spiritu" ISRC DEF055933912 INDEX 01 62:19:21

CD2

CREDO
[01] Chorus: Credo in unum Deum
[02] Chorus: Credo in unum Deum, Patrem omnipotentem
[03] Duet: (Soprano, Contralto): Et in unum Dominum
[04] Chorus: Et incarnatus est
[05] Chorus: Crucifixus
[06] Chorus: Et resurrexit
[07] Aria (Bass): Et in Spiritum Santum
[08] Chorus: Confiteor
[09] Chorus: Et expecto resurrectionem
SANCTUS
[10] Chorus: Sanctus
[11] Chorus: Osanna in excelsis
[12] Aria (Tenor): Bendictus
[13] Chorus: Osanna in excelsis (da capo)
AGNUS DEI
[14] Aria (Contralto): Agnus Dei
[15] Chorus: Dona nobis pacem

Лог создания рипа

Exact Audio Copy V1.0 beta 3 from 29. August 2011
EAC extraction logfile from 28. November 2014, 20:25
Alarie - Merriman - Simoneau - Niedlinger - Scherchen / Bach - Messe h-moll (CD2)
Used drive : HL-DT-STDVD+-RW GU90N Adapter: 0 ID: 0
Read mode : SecureUtilize accurate stream : YesDefeat audio cache : YesMake use of C2 pointers : No
Read offset correction : 102Overread into Lead-In and Lead-Out : NoFill up missing offset samples with silence : YesDelete leading and trailing silent blocks : NoNull samples used in CRC calculations : YesUsed interface : Native Win32 interface for Win NT & 2000
Used output format : User Defined EncoderSelected bitrate : 1024 kBit/sQuality : HighAdd ID3 tag : NoCommand line compressor : C:\Program Files (x86)\FLAC\flac.exeAdditional command line options : -T "COMMENT=rip by el coronel" -8 -V %source%
TOC of the extracted CD
Track | Start | Length | Start sector | End sector --------------------------------------------------------- 1 | 0:00.00 | 2:03.07 | 0 | 9231 2 | 2:03.07 | 2:46.49 | 9232 | 21730 3 | 4:49.56 | 4:28.19 | 21731 | 41849 4 | 9:18.00 | 4:26.00 | 41850 | 61799 5 | 13:44.00 | 5:09.00 | 61800 | 84974 6 | 18:53.00 | 4:00.48 | 84975 | 103022 7 | 22:53.48 | 5:46.27 | 103023 | 128999 8 | 28:40.00 | 7:20.50 | 129000 | 162049 9 | 36:00.50 | 1:54.41 | 162050 | 170640 10 | 37:55.16 | 7:14.22 | 170641 | 203212 11 | 45:09.38 | 2:50.51 | 203213 | 216013 12 | 48:00.14 | 7:10.31 | 216014 | 248294 13 | 55:10.45 | 2:50.30 | 248295 | 261074 14 | 58:01.00 | 5:29.00 | 261075 | 285749 15 | 63:30.00 | 3:59.00 | 285750 | 303674
Range status and errors
Selected range
Filename F:\Music\Bach - Messe h-moll - Scherchen (Westminster)\CD2.wav
Peak level 99.4 % Extraction speed 5.0 X Range quality 100.0 % Test CRC 6407649E Copy CRC 6407649E Copy OK
No errors occurred
AccurateRip summary
Track 1 accurately ripped (confidence 7) [5C062FA6] (AR v2)Track 2 accurately ripped (confidence 7) [66597E65] (AR v2)Track 3 accurately ripped (confidence 7) [4317BA21] (AR v2)Track 4 accurately ripped (confidence 7) [2EB13EE6] (AR v2)Track 5 accurately ripped (confidence 7) [694D417F] (AR v2)Track 6 accurately ripped (confidence 7) [F2C5C880] (AR v2)Track 7 accurately ripped (confidence 7) [BF4BD4DE] (AR v2)Track 8 accurately ripped (confidence 7) [927FFA7F] (AR v2)Track 9 accurately ripped (confidence 7) [FBDB0871] (AR v2)Track 10 accurately ripped (confidence 7) [FF1542DF] (AR v2)Track 11 accurately ripped (confidence 7) [EE118D6C] (AR v2)Track 12 accurately ripped (confidence 7) [C6102386] (AR v2)Track 13 accurately ripped (confidence 7) [6980ED75] (AR v2)Track 14 accurately ripped (confidence 7) [30C0CB33] (AR v2)Track 15 accurately ripped (confidence 7) [FEAAFE21] (AR v2)
All tracks accurately ripped
End of status report
==== Log checksum 3F8DE9E89206C0822ED0CA18587763405B344DAA302D012A6421E0AB7658809F ====

Содержание индексной карты (.CUE)

REM GENRE ChorusREM DATE 2002REM DISCID BC0FD10FREM COMMENT ExactAudioCopy v1.0b3CATALOG 0028947125525PERFORMER "Alarie - Merriman - Simoneau - Neidlinger - Scherchen"TITLE "Bach - Messe h-moll (CD2)"FILE "CD2.flac" WAVE TRACK 01 AUDIO TITLE "Chorus: Credo in unum Deum" ISRC DEF055933913 INDEX 01 00:00:00 TRACK 02 AUDIO TITLE "Chorus: Credo in unum Deum, Patrem omnipotentem" ISRC DEF055933914 INDEX 01 02:03:07 TRACK 03 AUDIO TITLE "Duet: (Soprano, Contralto): Et in unum Dominum" ISRC DEF055933915 INDEX 01 04:49:56 TRACK 04 AUDIO TITLE "Chorus: Et incarnatus est" ISRC DEF055933916 INDEX 01 09:18:00 TRACK 05 AUDIO TITLE "Chorus: Crucifixus" ISRC DEF055933917 INDEX 01 13:44:00 TRACK 06 AUDIO TITLE "Chorus: Et resurrexit" ISRC DEF055933918 INDEX 01 18:53:00 TRACK 07 AUDIO TITLE "Aria (Bass): Et in Spiritum Santum" ISRC DEF055933919 INDEX 01 22:53:48 TRACK 08 AUDIO TITLE "Chorus: Confiteor" ISRC DEF055933920 INDEX 01 28:40:00 TRACK 09 AUDIO TITLE "Chorus: Et expecto resurrectionem" ISRC DEF055933921 INDEX 01 36:00:50 TRACK 10 AUDIO TITLE "Chorus: Sanctus" ISRC DEF055933922 INDEX 01 37:55:16 TRACK 11 AUDIO TITLE "Chorus: Osanna in excelsis" ISRC DEF055933923 INDEX 01 45:09:38 TRACK 12 AUDIO TITLE "Aria (Tenor): Bendictus" ISRC DEF055933924 INDEX 01 48:00:14 TRACK 13 AUDIO TITLE "Chorus: Osanna in excelsis (da capo)" ISRC DEF055933925 INDEX 01 55:10:45 TRACK 14 AUDIO TITLE "Aria (Contralto): Agnus Dei" ISRC DEF055933926 INDEX 01 58:01:00 TRACK 15 AUDIO TITLE "Chorus: Dona nobis pacem" ISRC DEF055933927 INDEX 01 63:30:00
Исполнители:
Pierrette Alarie, soprano • Nan Merriman, contralto • Leopold Simoneau, tenor • Gustav Neidlinger, bass
Willi Boskovsky, solo violin • Franz Holetschek, organ
Wiener Chamber ChoirWiener Staatsopernorchester
Hermann Scherchen
[teatrix.ru].t7884.torrent 
Торрент: Зарегистрирован [ 2015-10-14 02:42 ] · F38CAB846994AAAD194E3729C7BF674BA1EA0DFF

Скачать .torrent

Скачать

14 KB

Статус: проверено
Скачан: 0 раз
Размер: 673 MB
terms.php



Быстрый ответ

Имя:

      
Для отправки сообщений необходимо включить JavaScript
Показать сообщения:    

Текущее время: 11-Дек 05:20

Часовой пояс: UTC + 3


Вы можете начинать темы
Вы можете отвечать на сообщения
Вы не можете редактировать свои сообщения
Вы не можете удалять свои сообщения
Вы не можете голосовать в опросах
Вы не можете прикреплять файлы к сообщениям
Вы можете скачивать файлы