(Classical) The Clerks’ Group · Edward Wickham: Missa Mi-Mi, Salve Regina & Alma redemptoris mater (J. Ockeghem, J. Obrecht, A. Busnois, H. Isaac) · 1994, FLAC (tracks+.cue) lossless


Статистика раздачи [Обновить пиров]
Размер:  267 MB   |    Зарегистрирован:  1 год 1 месяц   |    Скачан:  0 раз

Полного источника не было: Никогда

 
   
 
 
 

[Цитировать]

Missa Mi-Mi
Salve Regina
& Alma redemptoris mater

Жанр: classical
Страна-производитель диска: UK
Год издания диска: 1994
Издатель (лейбл): Gaudeamus
Номер по каталогу: CD Gau 139
Аудиокодек: FLAC
Тип рипа: tracks+.cue
Битрейт аудио: lossless
Продолжительность: 01:03:27
Источник: скачано с what.cd
Наличие сканов в содержимом раздачи: да
Исполнители: The Clerks’ Group · Edward Wickham

Треклист

Johannes Ockeghem
01. Salve Regina (8:51)
Missa Mi-Mi
02. Kyrie (2:20)
03. Gloria (6:56)
04. Credo (8:41)
05. Sanctus (3:38)
06. Benedictus (2:35)
07. Agnus Dei (6:10)
Jacob Obrecht
08. Quod Chorus Vatum / Haec Deum Caeli (5:46)
Antoine Busnois
09. Victimae Paschali Laudes (6:03)
Heinrich Isaac
10. Angeli, Archangeli (7:10)
Johannes Ockeghem
11. Alma Redemptoris Mater (5:17)

Лог создания рипа

Exact Audio Copy V0.99 prebeta 5 from 4. May 2009
EAC extraction logfile from 27. November 2009, 12:06
Johannes Ockeghem; Jacob Obrecht; Antoine Busnois; Henricus ( Heinrich) Isaac / Missa Mi-Mi, Salve Regina & Alma Redemptoris Mater - Obrecht, Busnois, Isaac : Motets
Used drive : TSSTcorpCD/DVDW SH-S182D Adapter: 0 ID: 1
Read mode : SecureUtilize accurate stream : YesDefeat audio cache : YesMake use of C2 pointers : No
Read offset correction : 6Overread into Lead-In and Lead-Out : NoFill up missing offset samples with silence : YesDelete leading and trailing silent blocks : NoNull samples used in CRC calculations : YesUsed interface : Native Win32 interface for Win NT & 2000Gap handling : Appended to previous track
Used output format : User Defined EncoderSelected bitrate : 768 kBit/sQuality : HighAdd ID3 tag : NoCommand line compressor : C:\Program Files\Exact Audio Copy\FLAC\FLAC.EXEAdditional command line options : -V -8 -T "artist=%a" -T "title=%t" -T "album=%g" -T "date=%y" -T "tracknumber=%n" -T "genre=%m" %s
TOC of the extracted CD
Track | Start | Length | Start sector | End sector --------------------------------------------------------- 1 | 0:00.32 | 8:51.10 | 32 | 39866 2 | 8:51.42 | 2:19.73 | 39867 | 50364 3 | 11:11.40 | 6:56.02 | 50365 | 81566 4 | 18:07.42 | 8:41.00 | 81567 | 120641 5 | 26:48.42 | 3:37.40 | 120642 | 136956 6 | 30:26.07 | 2:35.30 | 136957 | 148611 7 | 33:01.37 | 6:10.10 | 148612 | 176371 8 | 39:11.47 | 5:46.05 | 176372 | 202326 9 | 44:57.52 | 6:02.65 | 202327 | 229541 10 | 51:00.42 | 7:10.00 | 229542 | 261791 11 | 58:10.42 | 5:16.60 | 261792 | 285551
Track 1
Filename C:\Utils\download\New Folder\Clerkes - Missa Mi-Mi\01 Johannes Ockeghem , Salve Regina - Johannes Ockeghem; Jacob Obrecht; Antoine Busnois; Henricus ( Heinrich) Isaac.wav
Pre-gap length 0:00:02.42
Peak level 59.9 % Track quality 99.9 % Test CRC 88148771 Copy CRC 88148771 Accurately ripped (confidence 3) [C76AFE03] Copy OK
Track 2
Filename C:\Utils\download\New Folder\Clerkes - Missa Mi-Mi\02 I. Kyrie - Johannes Ockeghem; Jacob Obrecht; Antoine Busnois; Henricus ( Heinrich) Isaac.wav
Pre-gap length 0:00:06.53
Peak level 31.2 % Track quality 100.0 % Test CRC F103E9CE Copy CRC F103E9CE Accurately ripped (confidence 3) [F6769F4A] Copy OK
Track 3
Filename C:\Utils\download\New Folder\Clerkes - Missa Mi-Mi\03 II. Gloria - Johannes Ockeghem; Jacob Obrecht; Antoine Busnois; Henricus ( Heinrich) Isaac.wav
Pre-gap length 0:00:03.84
Peak level 59.3 % Track quality 100.0 % Test CRC 412CA1C6 Copy CRC 412CA1C6 Accurately ripped (confidence 3) [EB556EC5] Copy OK
Track 4
Filename C:\Utils\download\New Folder\Clerkes - Missa Mi-Mi\04 III. Credo - Johannes Ockeghem; Jacob Obrecht; Antoine Busnois; Henricus ( Heinrich) Isaac.wav
Pre-gap length 0:00:05.33
Peak level 48.4 % Track quality 99.9 % Test CRC AF47EA14 Copy CRC AF47EA14 Accurately ripped (confidence 3) [76DB11D4] Copy OK
Track 5
Filename C:\Utils\download\New Folder\Clerkes - Missa Mi-Mi\05 IV. Sanctus - Johannes Ockeghem; Jacob Obrecht; Antoine Busnois; Henricus ( Heinrich) Isaac.wav
Pre-gap length 0:00:04.96
Peak level 69.7 % Track quality 100.0 % Test CRC BB83B101 Copy CRC BB83B101 Accurately ripped (confidence 3) [5EBB677E] Copy OK
Track 6
Filename C:\Utils\download\New Folder\Clerkes - Missa Mi-Mi\06 V. Benedictus - Johannes Ockeghem; Jacob Obrecht; Antoine Busnois; Henricus ( Heinrich) Isaac.wav
Peak level 44.9 % Track quality 99.9 % Test CRC 91D3C665 Copy CRC 91D3C665 Accurately ripped (confidence 3) [17ECDD5D] Copy OK
Track 7
Filename C:\Utils\download\New Folder\Clerkes - Missa Mi-Mi\07 VI. Agnus Dei - Johannes Ockeghem; Jacob Obrecht; Antoine Busnois; Henricus ( Heinrich) Isaac.wav
Pre-gap length 0:00:04.33
Peak level 38.6 % Track quality 100.0 % Test CRC 14FCC540 Copy CRC 14FCC540 Accurately ripped (confidence 3) [B7350E39] Copy OK
Track 8
Filename C:\Utils\download\New Folder\Clerkes - Missa Mi-Mi\08 Jacob Obrecht , Quod Chorus Vatum - Haec Deum Caeli - Johannes Ockeghem; Jacob Obrecht; Antoine Busnois; Henricus ( Heinrich) Isaac.wav
Pre-gap length 0:00:06.62
Peak level 68.8 % Track quality 100.0 % Test CRC C953084F Copy CRC C953084F Accurately ripped (confidence 3) [6FDDCF85] Copy OK
Track 9
Filename C:\Utils\download\New Folder\Clerkes - Missa Mi-Mi\09 Antoine Busnois , Victimae Paschali Laudes - Johannes Ockeghem; Jacob Obrecht; Antoine Busnois; Henricus ( Heinrich) Isaac.wav
Pre-gap length 0:00:07.26
Peak level 75.1 % Track quality 100.0 % Test CRC 4DBDAC39 Copy CRC 4DBDAC39 Accurately ripped (confidence 3) [EA81D6F8] Copy OK
Track 10
Filename C:\Utils\download\New Folder\Clerkes - Missa Mi-Mi\10 Henricus ( Heinrich) Isaac , Angeli, Archangeli - Johannes Ockeghem; Jacob Obrecht; Antoine Busnois; Henricus ( Heinrich) Isaac.wav
Pre-gap length 0:00:06.33
Peak level 99.5 % Track quality 99.9 % Test CRC 0FDDE3CD Copy CRC 0FDDE3CD Accurately ripped (confidence 3) [C69A752D] Copy OK
Track 11
Filename C:\Utils\download\New Folder\Clerkes - Missa Mi-Mi\11 Johannes Ockeghem , Alma Redemptoris Mater - Johannes Ockeghem; Jacob Obrecht; Antoine Busnois; Henricus ( Heinrich) Isaac.wav
Pre-gap length 0:00:07.26
Peak level 81.5 % Track quality 99.9 % Test CRC 69B33323 Copy CRC 69B33323 Accurately ripped (confidence 2) [5AC1023D] Copy OK
All tracks accurately ripped
No errors occurred
End of status report

Содержание индексной карты (.CUE)

REM DATE 1994REM DISCID A30EDF0BREM COMMENT "ExactAudioCopy v0.99pb5"PERFORMER "The Clerks’ Group · Wickham"TITLE "Missa Mi-Mi, Salve Regina & Alma redemptoris mater"FILE "01. Salve Regina.wav" WAVE TRACK 01 AUDIO TITLE "Salve Regina" PERFORMER "The Clerks’ Group · Wickham" PREGAP 00:00:32 INDEX 01 00:00:00 TRACK 02 AUDIO TITLE "Kyrie" PERFORMER "The Clerks’ Group · Wickham" INDEX 00 08:44:45FILE "02. Kyrie.wav" WAVE INDEX 01 00:00:00 TRACK 03 AUDIO TITLE "Gloria" PERFORMER "The Clerks’ Group · Wickham" INDEX 00 02:16:10FILE "03. Gloria.wav" WAVE INDEX 01 00:00:00 TRACK 04 AUDIO TITLE "Credo" PERFORMER "The Clerks’ Group · Wickham" INDEX 00 06:50:52FILE "04. Credo.wav" WAVE INDEX 01 00:00:00 TRACK 05 AUDIO TITLE "Sanctus" PERFORMER "The Clerks’ Group · Wickham" INDEX 00 08:36:03FILE "05. Sanctus.wav" WAVE INDEX 01 00:00:00FILE "06. Benedictus.wav" WAVE TRACK 06 AUDIO TITLE "Benedictus" PERFORMER "The Clerks’ Group · Wickham" INDEX 01 00:00:00 TRACK 07 AUDIO TITLE "Agnus Dei" PERFORMER "The Clerks’ Group · Wickham" INDEX 00 02:31:05FILE "07. Agnus Dei.wav" WAVE INDEX 01 00:00:00 TRACK 08 AUDIO TITLE "Quod Chorus Vatum / Haec Deum Caeli" PERFORMER "The Clerks’ Group · Wickham" INDEX 00 06:03:38FILE "08. Quod Chorus Vatum — Haec Deum Caeli.wav" WAVE INDEX 01 00:00:00 TRACK 09 AUDIO TITLE "Victimae Paschali Laudes" PERFORMER "The Clerks’ Group · Wickham" INDEX 00 05:38:60FILE "09. Victimae Paschali Laudes.wav" WAVE INDEX 01 00:00:00 TRACK 10 AUDIO TITLE "Angeli, Archangeli" PERFORMER "The Clerks’ Group · Wickham" INDEX 00 05:56:40FILE "10. Angeli, Archangeli.wav" WAVE INDEX 01 00:00:00 TRACK 11 AUDIO TITLE "Alma Redemptoris Mater" PERFORMER "The Clerks’ Group · Wickham" INDEX 00 07:02:55FILE "11. Alma Redemptoris Mater.wav" WAVE INDEX 01 00:00:00
[teatrix.ru].t7885.torrent 
Торрент: Зарегистрирован [ 2015-10-14 02:42 ] · E5666359F703C168346DAC4E37678A2C0C7259BF

Скачать .torrent

Скачать

12 KB

Статус: проверено
Скачан: 0 раз
Размер: 267 MB
terms.php



Быстрый ответ

Имя:

      
Для отправки сообщений необходимо включить JavaScript
Показать сообщения:    

Текущее время: 04-Дек 00:52

Часовой пояс: UTC + 3


Вы можете начинать темы
Вы можете отвечать на сообщения
Вы не можете редактировать свои сообщения
Вы не можете удалять свои сообщения
Вы не можете голосовать в опросах
Вы не можете прикреплять файлы к сообщениям
Вы можете скачивать файлы