(Classical) Adrian Willaert / Giovanni Gabrieli — Venetian Music For Double Choir (Currende · Concerto Italiano · Erik Van Nevel) · 2008, FLAC (tracks+.cue) lossless


Статистика раздачи [Обновить пиров]
Размер:  278 MB   |    Зарегистрирован:  1 год 1 месяц   |    Скачан:  0 раз

Полного источника не было: Никогда

 
   
 
 
 

[Цитировать]

Adrian Willaert / Giovanni Gabrieli —
Venetian Music For Double Choir
Жанр: classical
Страна-производитель диска: Germany
Год издания диска: 2008
Издатель (лейбл): Accent
Номер по каталогу: ACC 10101
Дата записи: ?
Аудиокодек: FLAC
Тип рипа: tracks+.cue
Битрейт аудио: lossless
Продолжительность: 01:01:49
Источник: скачано с what.cd
Наличие сканов в содержимом раздачи: да
Исполнители:
Currende · Concerto Italiano
Erik Van Nevel

Треклист

Adrian Willaert
01. Lauda Jerusalem, Psalm 147, Secundi toni (a 8) (5:12)
02. Credidi, propter quod locutus sum, Psalm 115, Quarti toni (a 8) (4:49)
Musica Nova, 1547:
03. Ricercar X (4:08)
Giovanni Gabrieli
Sacrae Symphoniae, 1597:
04. In te Domine speravi (a 8) (2:41)
05. Beata es virgo (a 6, instr.) (3:09)
06. Beata es virgo (a 6) (3:09)
07. Sancta et immaculata Virginitas (a 8) (3:00)
08. Angelus Domini (a 8) (2:46)
Sacrae Symphoniae, 1597:
09. O Jesu mi dulcissime (a 8) (3:26)
Canzoni e Sonate, 1615:
10. Canzoni (a 6) (3:19)
Sacrae Symphoniae, 1615:
11. Exultavit cor meum (a 6) (4:21)
12. Sancta et immaculata Virginitas (a 7) (2:55)
13. O Jesu mi dulcissime (a 8) (6:24)
14. Benedictus es Dominus (a 8) (4:53)
15. O quam suavis (a 8) (3:13)
16. Hodie completi sunt (a 8) (4:25)

Лог создания рипа

Exact Audio Copy V1.0 beta 3 from 29. August 2011
EAC extraction logfile from 21. August 2012, 1:58
Currende; Concerto Italiano; Erik Van Nevel / Venetian Music for Double Choir
Used drive : PIONEER DVD-RW DVR-219L Adapter: 2 ID: 0
Read mode : SecureUtilize accurate stream : YesDefeat audio cache : YesMake use of C2 pointers : No
Read offset correction : 6Overread into Lead-In and Lead-Out : NoFill up missing offset samples with silence : YesDelete leading and trailing silent blocks : NoNull samples used in CRC calculations : YesUsed interface : Native Win32 interface for Win NT & 2000Gap handling : Appended to previous track
Used output format : User Defined EncoderSelected bitrate : 768 kBit/sQuality : HighAdd ID3 tag : NoCommand line compressor : C:\Program Files (x86)\Exact Audio Copy\FLAC\FLAC.EXEAdditional command line options : -8 -V -T "ARTIST=%artist%" -T "TITLE=%title%" -T "ALBUM=%albumtitle%" -T "DATE=%year%" -T "TRACKNUMBER=%tracknr%" -T "GENRE=%genre%" -T "COMMENT=%comment%" -T "BAND=%albuminterpret%" -T "ALBUMARTIST=%albuminterpret%" -T "COMPOSER=%composer%" %haslyrics%--tag-from-file=LYRICS="%lyricsfile%"%haslyrics% -T "DISCNUMBER=%cdnumber%" -T "TOTALDISCS=%totalcds%" -T "TOTALTRACKS=%numtracks%" %hascover%--picture="%coverfile%"%hascover% %source% -o %dest%
TOC of the extracted CD
Track | Start | Length | Start sector | End sector --------------------------------------------------------- 1 | 0:00.32 | 5:11.50 | 32 | 23406 2 | 5:12.07 | 4:48.40 | 23407 | 45046 3 | 10:00.47 | 4:07.55 | 45047 | 63626 4 | 14:08.27 | 2:41.33 | 63627 | 75734 5 | 16:49.60 | 3:09.00 | 75735 | 89909 6 | 19:58.60 | 3:08.52 | 89910 | 104061 7 | 23:07.37 | 2:59.38 | 104062 | 117524 8 | 26:07.00 | 2:46.27 | 117525 | 130001 9 | 28:53.27 | 3:25.50 | 130002 | 145426 10 | 32:19.02 | 3:19.33 | 145427 | 160384 11 | 35:38.35 | 4:21.17 | 160385 | 179976 12 | 39:59.52 | 2:54.48 | 179977 | 193074 13 | 42:54.25 | 6:23.55 | 193075 | 221854 14 | 49:18.05 | 4:53.35 | 221855 | 243864 15 | 54:11.40 | 3:13.05 | 243865 | 258344 16 | 57:24.45 | 4:25.07 | 258345 | 278226
Track 1
Filename C:\Rips\Venetian Music for Double Choir (Van Nevel)\01 - Lauda Jerusalem, Psalm 147, Secundi toni (a 8).wav
Pre-gap length 0:00:02.32
Peak level 96.7 % Extraction speed 1.1 X Track quality 100.0 % Test CRC A6B1E9AE Copy CRC A6B1E9AE Accurately ripped (confidence 2) [461E8992] (AR v1) Copy OK
Track 2
Filename C:\Rips\Venetian Music for Double Choir (Van Nevel)\02 - Credidi, propter quod locutus sum, Psalm 115, Quarti toni (a 8).wav
Pre-gap length 0:00:03.45
Peak level 93.2 % Extraction speed 1.2 X Track quality 100.0 % Test CRC D2F6AEA2 Copy CRC D2F6AEA2 Accurately ripped (confidence 2) [163D1CB9] (AR v1) Copy OK
Track 3
Filename C:\Rips\Venetian Music for Double Choir (Van Nevel)\03 - Musica Nova, 1547 - Ricercar X.wav
Pre-gap length 0:00:03.17
Peak level 62.9 % Extraction speed 1.3 X Track quality 100.0 % Test CRC 3F284388 Copy CRC 3F284388 Accurately ripped (confidence 2) [FBB2F84D] (AR v1) Copy OK
Track 4
Filename C:\Rips\Venetian Music for Double Choir (Van Nevel)\04 - Sacrae Symphoniae, 1597 - In te Domine speravi (a 8).wav
Peak level 97.7 % Extraction speed 1.3 X Track quality 100.0 % Test CRC 464979E6 Copy CRC 464979E6 Accurately ripped (confidence 2) [471AF480] (AR v1) Copy OK
Track 5
Filename C:\Rips\Venetian Music for Double Choir (Van Nevel)\05 - Sacrae Symphoniae, 1597 - Beata es virgo (a 6, instr.).wav
Pre-gap length 0:00:03.44
Peak level 66.0 % Extraction speed 1.4 X Track quality 100.0 % Test CRC 943B5CE1 Copy CRC 943B5CE1 Accurately ripped (confidence 2) [498B650F] (AR v1) Copy OK
Track 6
Filename C:\Rips\Venetian Music for Double Choir (Van Nevel)\06 - Sacrae Symphoniae, 1597 - Beata es virgo (a 6).wav
Peak level 73.3 % Extraction speed 1.5 X Track quality 100.0 % Test CRC 2D2098FB Copy CRC 2D2098FB Accurately ripped (confidence 2) [4DB073C4] (AR v1) Copy OK
Track 7
Filename C:\Rips\Venetian Music for Double Choir (Van Nevel)\07 - Sacrae Symphoniae, 1597 - Sancta et immaculata Virginitas (a 8).wav
Pre-gap length 0:00:03.60
Peak level 90.5 % Extraction speed 1.5 X Track quality 100.0 % Test CRC CAF2AA6F Copy CRC CAF2AA6F Accurately ripped (confidence 2) [D111AD81] (AR v1) Copy OK
Track 8
Filename C:\Rips\Venetian Music for Double Choir (Van Nevel)\08 - Sacrae Symphoniae, 1597 - Angelus Domini (a 8).wav
Pre-gap length 0:00:03.63
Peak level 91.7 % Extraction speed 1.3 X Track quality 99.9 % Test CRC 028C8155 Copy CRC 028C8155 Accurately ripped (confidence 2) [436C216F] (AR v1) Copy OK
Track 9
Filename C:\Rips\Venetian Music for Double Choir (Van Nevel)\09 - Sacrae Symphoniae, 1597 - O Jesu mi dulcissime (a 8).wav
Pre-gap length 0:00:05.02
Peak level 97.7 % Extraction speed 1.7 X Track quality 100.0 % Test CRC 86173862 Copy CRC 86173862 Accurately ripped (confidence 2) [5CA03F21] (AR v1) Copy OK
Track 10
Filename C:\Rips\Venetian Music for Double Choir (Van Nevel)\10 - Canzoni e Sonate, 1615 - Canzoni (a 6).wav
Pre-gap length 0:00:02.35
Peak level 97.7 % Extraction speed 1.7 X Track quality 100.0 % Test CRC DA81E51D Copy CRC DA81E51D Accurately ripped (confidence 2) [A4BE011C] (AR v1) Copy OK
Track 11
Filename C:\Rips\Venetian Music for Double Choir (Van Nevel)\11 - Sacrae Symphoniae, 1615 - Exultavit cor meum (a 6).wav
Pre-gap length 0:00:04.02
Peak level 97.7 % Extraction speed 1.8 X Track quality 100.0 % Test CRC 404F2D5E Copy CRC 404F2D5E Accurately ripped (confidence 2) [AAD1295E] (AR v1) Copy OK
Track 12
Filename C:\Rips\Venetian Music for Double Choir (Van Nevel)\12 - Sacrae Symphoniae, 1615 - Sancta et immaculata Virginitas (a 7).wav
Pre-gap length 0:00:04.32
Peak level 94.9 % Extraction speed 1.5 X Track quality 99.9 % Test CRC C0F98C22 Copy CRC C0F98C22 Accurately ripped (confidence 2) [606995AB] (AR v1) Copy OK
Track 13
Filename C:\Rips\Venetian Music for Double Choir (Van Nevel)\13 - Sacrae Symphoniae, 1615 - O Jesu mi dulcissime (a 8).wav
Pre-gap length 0:00:04.08
Peak level 97.7 % Extraction speed 2.0 X Track quality 100.0 % Test CRC AF7FBC27 Copy CRC AF7FBC27 Accurately ripped (confidence 2) [EF169A24] (AR v1) Copy OK
Track 14
Filename C:\Rips\Venetian Music for Double Choir (Van Nevel)\14 - Sacrae Symphoniae, 1615 - Benedictus es Dominus (a 8).wav
Pre-gap length 0:00:03.33
Peak level 97.7 % Extraction speed 1.8 X Track quality 99.9 % Test CRC 366AAF91 Copy CRC 366AAF91 Accurately ripped (confidence 2) [887122FF] (AR v1) Copy OK
Track 15
Filename C:\Rips\Venetian Music for Double Choir (Van Nevel)\15 - Sacrae Symphoniae, 1615 - O quam suavis (a 8).wav
Pre-gap length 0:00:01.51
Peak level 97.7 % Extraction speed 2.0 X Track quality 100.0 % Test CRC F1049FDC Copy CRC F1049FDC Accurately ripped (confidence 2) [99642B44] (AR v1) Copy OK
Track 16
Filename C:\Rips\Venetian Music for Double Choir (Van Nevel)\16 - Sacrae Symphoniae, 1615 - Hodie completi sunt (a 8).wav
Pre-gap length 0:00:03.05
Peak level 97.7 % Extraction speed 2.2 X Track quality 100.0 % Test CRC E52B181F Copy CRC E52B181F Accurately ripped (confidence 2) [7FB0B01B] (AR v1) Copy OK
All tracks accurately ripped
No errors occurred
End of status report
==== Log checksum 080D9425F7C2ECD64E6CB4691376C3EFF4F0241413269E053FBA86C47233C6B6 ====

Содержание индексной карты (.CUE)

REM DATE 2008REM DISCID BF0E7D10REM COMMENT "ExactAudioCopy v1.0b3"CATALOG 0000000000000PERFORMER "Currende · Concerto Italiano · Erik Van Nevel"TITLE "Venetian Music for Double Choir"FILE "01. Lauda Jerusalem, Psalm 147, Secundi toni (a 8).wav" WAVE TRACK 01 AUDIO TITLE "Lauda Jerusalem, Psalm 147, Secundi toni (a 8)" PERFORMER "Currende · Concerto Italiano · Erik Van Nevel" PREGAP 00:00:32 INDEX 01 00:00:00 TRACK 02 AUDIO TITLE "Credidi, propter quod locutus sum, Psalm 115, Quarti toni (a 8)" PERFORMER "Currende · Concerto Italiano · Erik Van Nevel" INDEX 00 05:08:05FILE "02. Credidi, propter quod locutus sum....wav" WAVE INDEX 01 00:00:00 TRACK 03 AUDIO TITLE "Ricercar X" PERFORMER "Currende · Concerto Italiano · Erik Van Nevel" INDEX 00 04:45:23FILE "03. Ricercar X.wav" WAVE INDEX 01 00:00:00FILE "04. In te Domine speravi (a 8).wav" WAVE TRACK 04 AUDIO TITLE "In te Domine speravi (a 8)" PERFORMER "Currende · Concerto Italiano · Erik Van Nevel" INDEX 01 00:00:00 TRACK 05 AUDIO TITLE "Beata es virgo (a 6, instr.)" PERFORMER "Currende · Concerto Italiano · Erik Van Nevel" INDEX 00 02:37:64FILE "05. Beata es virgo (a 6, instr.).wav" WAVE INDEX 01 00:00:00FILE "06. Beata es virgo (a 6).wav" WAVE TRACK 06 AUDIO TITLE "Beata es virgo (a 6)" PERFORMER "Currende · Concerto Italiano · Erik Van Nevel" INDEX 01 00:00:00 TRACK 07 AUDIO TITLE "Sancta et immaculata Virginitas (a 8)" PERFORMER "Currende · Concerto Italiano · Erik Van Nevel" INDEX 00 03:04:67FILE "07. Sancta et immaculata Virginitas (a 8).wav" WAVE INDEX 01 00:00:00 TRACK 08 AUDIO TITLE "Angelus Domini (a 8)" PERFORMER "Currende · Concerto Italiano · Erik Van Nevel" INDEX 00 02:55:50FILE "08. Angelus Domini (a 8).wav" WAVE INDEX 01 00:00:00 TRACK 09 AUDIO TITLE "O Jesu mi dulcissime (a 8)" PERFORMER "Currende · Concerto Italiano · Erik Van Nevel" INDEX 00 02:41:25FILE "09. O Jesu mi dulcissime (a 8).wav" WAVE INDEX 01 00:00:00 TRACK 10 AUDIO TITLE "Canzoni (a 6)" PERFORMER "Currende · Concerto Italiano · Erik Van Nevel" INDEX 00 03:23:15FILE "10. Canzoni (a 6).wav" WAVE INDEX 01 00:00:00 TRACK 11 AUDIO TITLE "Exultavit cor meum (a 6)" PERFORMER "Currende · Concerto Italiano · Erik Van Nevel" INDEX 00 03:15:31FILE "11. Exultavit cor meum (a 6).wav" WAVE INDEX 01 00:00:00 TRACK 12 AUDIO TITLE "Sancta et immaculata Virginitas (a 7)" PERFORMER "Currende · Concerto Italiano · Erik Van Nevel" INDEX 00 04:16:60FILE "12. Sancta et immaculata Virginitas (a 7).wav" WAVE INDEX 01 00:00:00 TRACK 13 AUDIO TITLE "O Jesu mi dulcissime (a 8)" PERFORMER "Currende · Concerto Italiano · Erik Van Nevel" INDEX 00 02:50:40FILE "13. O Jesu mi dulcissime (a 8).wav" WAVE INDEX 01 00:00:00 TRACK 14 AUDIO TITLE "Benedictus es Dominus (a 8)" PERFORMER "Currende · Concerto Italiano · Erik Van Nevel" INDEX 00 06:20:22FILE "14. Benedictus es Dominus (a 8).wav" WAVE INDEX 01 00:00:00 TRACK 15 AUDIO TITLE "O quam suavis (a 8)" PERFORMER "Currende · Concerto Italiano · Erik Van Nevel" INDEX 00 04:51:59FILE "15. O quam suavis (a 8).wav" WAVE INDEX 01 00:00:00 TRACK 16 AUDIO TITLE "Hodie completi sunt (a 8)" PERFORMER "Currende · Concerto Italiano · Erik Van Nevel" INDEX 00 03:10:00FILE "16. Hodie completi sunt (a 8).wav" WAVE INDEX 01 00:00:00
[teatrix.ru].t7886.torrent 
Торрент: Зарегистрирован [ 2015-10-14 02:42 ] · 0F23B79AFA5EFA0F7BA036146AA70E2BC84F0B6D

Скачать .torrent

Скачать

13 KB

Статус: проверено
Скачан: 0 раз
Размер: 278 MB
terms.php



Быстрый ответ

Имя:

      
Для отправки сообщений необходимо включить JavaScript
Показать сообщения:    

Текущее время: 04-Дек 00:51

Часовой пояс: UTC + 3


Вы можете начинать темы
Вы можете отвечать на сообщения
Вы не можете редактировать свои сообщения
Вы не можете удалять свои сообщения
Вы не можете голосовать в опросах
Вы не можете прикреплять файлы к сообщениям
Вы можете скачивать файлы