(Mass, Magnificat) J.S.Bach & C.P.E.Bach - Magnificats, Scarlatti - Messa di Santa Cecilia (Academy of St Martin-in-the-Fields, Wren Orchestra, Choir of St John\'s/King\'s College Cambridge,Ledger, Guest) - 1998, FLAC (image+.cue) lossless


Статистика раздачи [Обновить пиров]
Размер:  612 MB   |    Зарегистрирован:  1 год 1 месяц   |    Скачан:  0 раз

Полного источника не было: Никогда

 
   
 
 
 

[Цитировать]

J.S.Bach & C.P.E.Bach - Magnificats
Alessandro Scarlatti - Messa di Santa Cecilia
Жанр: Sacred, Magnificat
Страна-производитель диска: UK
Год издания диска: 1998
Издатель (лейбл): Decca
Номер по каталогу: 458-370 2
Дата записи: 1976-1978
Аудиокодек: FLAC
Тип рипа: image+.cue
Битрейт аудио: lossless
Продолжительность: 2:12:54
Источник: собственный рип
Наличие сканов в содержимом раздачи: да
Исполнители:
J.S.Bach & C.P.E.Bach - Magnificats:
Felicity Palmer - soprano
Helen Watts - alto
Robert Tear - tenor
Stephen Roberts - bass
Choir of King's College Cambridge
The Academy of St Martin-in-the-Fields
Philip Ledger - cond.
A.Scarlatti - Messa di Santa Cecilia:
Elizabeth Harwood, Wendy Eathorne - soprano
Margaret Cable - alto
Wynford Evans - tenor
Christopher Keyte - bass
Choir of St John's College Cambridge
The Wren Orchestra
George Guest - cond.
Треклист:

CD1: J.S.Bach - Magnificat & Scarlatti - Messa di Santa Cecilia

J.S.Bach - Magnificat, for 5 voices, 5-part chorus, orchestra & continuo in E flat major, BWV 243a
1 Magnificat 3:11
2 Et exsultavit spiritus meus 2:29
3 Vom Himmel hoch 1:44
4 Quia respexit humilitatem - Omnes generationes 4:14
5 Quia fecit mihi magna 2:08
6 Freut euch und jubiliert 1:28
7 Et misericordia 2:06
8 Fecit potentiam 2:06
9 Gloria in excelsis 1:09
10 Deposuit potentes 2:17
11 Esurientes implevit bonis 3:10
12 Virga jesse floruit 3:27
13 Suscepit Israel 1:56
14 Sicut locutus est 1:28
15 Gloria Patri 2:25
A.Scarlatti - Messa di Santa Cecilia, for soloists, chorus, 2 violins, viola & continuo in A major
16 Kyrie 6:33
17 Gloria: Gloria in excelsis Deo 5:07
18 Gratias agimus tibi 7:18
19 Qui tollis peccata mundi 6:41
20 Quoniam tu solus Sanctus 4:36

CD2: A. Scarlatti - Messa di Santa Cecilia, C.P.E.Bach - Magnificat

A. Scarlatti - Messa di Santa Cecilia (cont.)
1 Credo: Credo in unum Deum 3:05
2 Et incarnatus est 8:10
3 Et vitam venturi 2:50
4 Sanctus 2:10
5 Agnus Dei 6:32
C.P.E. - Magnificat for 4 voices, chorus, 2 flutes, 2 oboes, 3 trumpets, 2 horns, strings & continuo in D minor, H. 772, Wq. 215
6 Magnificat 3:00
7 Quia respexit humilitatem 5:43
8 Quia fecit mihi magna 4:27
9 Et misericordia 6:02
10 Fecit potentiam 4:49
11 Deposuit potentes 6:06
12 Suscepit Israel 4:39
13 Gloria Patri 1:55
14 Sicut erat in principio 6:12

Лог создания рипа

Лог создания рипа CD1

Exact Audio Copy V1.0 beta 2 from 29. April 2011
EAC extraction logfile from 29. November 2014, 22:31
The Choir of Kings/St.John's College / Magnificat BWV 243a, Messa di Santa Cecilia, Magnificat H 772
Used drive : _NEC DVD_RW ND-3551A Adapter: 0 ID: 0
Read mode : Secure
Utilize accurate stream : Yes
Defeat audio cache : Yes
Make use of C2 pointers : No
Read offset correction : 48
Overread into Lead-In and Lead-Out : No
Fill up missing offset samples with silence : Yes
Delete leading and trailing silent blocks : No
Null samples used in CRC calculations : Yes
Used interface : Native Win32 interface for Win NT & 2000
Used output format : User Defined Encoder
Selected bitrate : 128 kBit/s
Quality : High
Add ID3 tag : No
Command line compressor : D:\Program Files\Exact Audio Copy\Flac\flac.exe
Additional command line options : -V -8 -T "Date=%year%" -T "Genre=%genre%" %source%
TOC of the extracted CD
Track | Start | Length | Start sector | End sector
---------------------------------------------------------
1 | 0:00.32 | 3:11.25 | 32 | 14381
2 | 3:11.57 | 2:29.13 | 14382 | 25569
3 | 5:40.70 | 1:45.50 | 25570 | 33494
4 | 7:26.45 | 4:13.62 | 33495 | 52531
5 | 11:40.32 | 2:09.50 | 52532 | 62256
6 | 13:50.07 | 1:27.38 | 62257 | 68819
7 | 15:17.45 | 3:16.12 | 68820 | 83531
8 | 18:33.57 | 2:07.38 | 83532 | 93094
9 | 20:41.20 | 1:08.37 | 93095 | 98231
10 | 21:49.57 | 2:18.00 | 98232 | 108581
11 | 24:07.57 | 3:12.63 | 108582 | 123044
12 | 27:20.45 | 3:27.12 | 123045 | 138581
13 | 30:47.57 | 1:59.63 | 138582 | 147569
14 | 32:47.45 | 1:27.37 | 147570 | 154131
15 | 34:15.07 | 2:32.63 | 154132 | 165594
16 | 36:47.70 | 6:35.37 | 165595 | 195256
17 | 43:23.32 | 5:06.63 | 195257 | 218269
18 | 48:30.20 | 7:18.25 | 218270 | 251144
19 | 55:48.45 | 6:40.50 | 251145 | 281194
20 | 62:29.20 | 4:36.12 | 281195 | 301906
Range status and errors
Selected range
Filename C:\RIP\Bach - Magnificat (CD1).wav
Peak level 97.6 %
Extraction speed 2.4 X
Range quality 99.9 %
Test CRC E783A1B8
Copy CRC E783A1B8
Copy OK
No errors occurred
AccurateRip summary
Track 1 accurately ripped (confidence 3) [8C45794C] (AR v2)
Track 2 accurately ripped (confidence 3) [15251C33] (AR v2)
Track 3 accurately ripped (confidence 3) [9A81E0DE] (AR v2)
Track 4 accurately ripped (confidence 3) [AD45F1B7] (AR v2)
Track 5 accurately ripped (confidence 3) [55B579B9] (AR v2)
Track 6 accurately ripped (confidence 3) [E34F33B0] (AR v2)
Track 7 accurately ripped (confidence 3) [E35EDF0C] (AR v2)
Track 8 accurately ripped (confidence 3) [2FF15508] (AR v2)
Track 9 accurately ripped (confidence 3) [45B71AAB] (AR v2)
Track 10 accurately ripped (confidence 3) [34711D80] (AR v2)
Track 11 accurately ripped (confidence 3) [103663D2] (AR v2)
Track 12 accurately ripped (confidence 3) [58AB4F75] (AR v2)
Track 13 accurately ripped (confidence 3) [5F4978B4] (AR v2)
Track 14 accurately ripped (confidence 3) [3667EC3A] (AR v2)
Track 15 accurately ripped (confidence 3) [A6C432DC] (AR v2)
Track 16 accurately ripped (confidence 3) [78333601] (AR v2)
Track 17 accurately ripped (confidence 3) [81D32186] (AR v2)
Track 18 accurately ripped (confidence 3) [4C5F3F3B] (AR v2)
Track 19 accurately ripped (confidence 3) [9554979D] (AR v2)
Track 20 accurately ripped (confidence 3) [FAC89E08] (AR v2)
All tracks accurately ripped
End of status report
==== Log checksum 0D99BF51D84192D7E253E7712D504121E1BDEA1607FE1A7333E8F6C9C3C237F8 ====

Лог создания рипа CD2

Exact Audio Copy V1.0 beta 2 from 29. April 2011
EAC extraction logfile from 29. November 2014, 23:37
The Choir of Kings/St.John's College / Magnificat BWV 243 a, Messa di Santa Cecilia, Magnificat H 772
Used drive : _NEC DVD_RW ND-3551A Adapter: 0 ID: 0
Read mode : Secure
Utilize accurate stream : Yes
Defeat audio cache : Yes
Make use of C2 pointers : No
Read offset correction : 48
Overread into Lead-In and Lead-Out : No
Fill up missing offset samples with silence : Yes
Delete leading and trailing silent blocks : No
Null samples used in CRC calculations : Yes
Used interface : Native Win32 interface for Win NT & 2000
Used output format : User Defined Encoder
Selected bitrate : 128 kBit/s
Quality : High
Add ID3 tag : No
Command line compressor : D:\Program Files\Exact Audio Copy\Flac\flac.exe
Additional command line options : -V -8 -T "Date=%year%" -T "Genre=%genre%" %source%
TOC of the extracted CD
Track | Start | Length | Start sector | End sector
---------------------------------------------------------
1 | 0:00.32 | 3:05.00 | 32 | 13906
2 | 3:05.32 | 8:09.38 | 13907 | 50619
3 | 11:14.70 | 2:53.50 | 50620 | 63644
4 | 14:08.45 | 2:09.50 | 63645 | 73369
5 | 16:18.20 | 6:39.37 | 73370 | 103331
6 | 22:57.57 | 3:00.00 | 103332 | 116831
7 | 25:57.57 | 5:42.38 | 116832 | 142519
8 | 31:40.20 | 4:27.25 | 142520 | 162569
9 | 36:07.45 | 6:02.00 | 162570 | 189719
10 | 42:09.45 | 4:48.62 | 189720 | 211381
11 | 46:58.32 | 6:05.38 | 211382 | 238794
12 | 53:03.70 | 4:39.25 | 238795 | 259744
13 | 57:43.20 | 1:55.12 | 259745 | 268381
14 | 59:38.32 | 6:11.50 | 268382 | 296256
Range status and errors
Selected range
Filename C:\RIP\Bach - Magnificat (CD2).wav
Peak level 83.0 %
Extraction speed 3.1 X
Range quality 100.0 %
Test CRC 82385DE1
Copy CRC 82385DE1
Copy OK
No errors occurred
AccurateRip summary
Track 1 accurately ripped (confidence 3) [DA758616] (AR v2)
Track 2 accurately ripped (confidence 3) [7A91B966] (AR v2)
Track 3 accurately ripped (confidence 3) [A23ECE5A] (AR v2)
Track 4 accurately ripped (confidence 3) [E4EF13D3] (AR v2)
Track 5 accurately ripped (confidence 3) [9BE58E87] (AR v2)
Track 6 accurately ripped (confidence 3) [4EEC3A89] (AR v2)
Track 7 accurately ripped (confidence 3) [EE2C4E00] (AR v2)
Track 8 accurately ripped (confidence 3) [0FCEB676] (AR v2)
Track 9 accurately ripped (confidence 3) [EEF62C95] (AR v2)
Track 10 accurately ripped (confidence 3) [A17AD7D0] (AR v2)
Track 11 accurately ripped (confidence 3) [15EEBC08] (AR v2)
Track 12 accurately ripped (confidence 3) [3B66F124] (AR v2)
Track 13 accurately ripped (confidence 3) [F554AA4F] (AR v2)
Track 14 accurately ripped (confidence 3) [5594B631] (AR v2)
All tracks accurately ripped
End of status report
==== Log checksum 02A512EC388A571AC4F8FD80978F9031FCE5CD29A6E4C41BCD81F23DBF2A840D ====
[teatrix.ru].t7887.torrent 
Торрент: Зарегистрирован [ 2015-10-14 02:42 ] · D193ECF2EA4620C88C85B59168BF91A0DD951EE6

Скачать .torrent

Скачать

13 KB

Статус: проверено
Скачан: 0 раз
Размер: 612 MB
terms.php



Быстрый ответ

Имя:

      
Для отправки сообщений необходимо включить JavaScript
Показать сообщения:    

Текущее время: 08-Дек 11:00

Часовой пояс: UTC + 3


Вы можете начинать темы
Вы можете отвечать на сообщения
Вы не можете редактировать свои сообщения
Вы не можете удалять свои сообщения
Вы не можете голосовать в опросах
Вы не можете прикреплять файлы к сообщениям
Вы можете скачивать файлы