(Sacred, Requiems) Gabriel Faure - Requiem, Op.48 & Maurice Durufle - Requiem, Op. 9 (Oxford New College Choir & Edward Higginbottom) - 1997, FLAC (image+.cue) lossless


Статистика раздачи [Обновить пиров]
Размер:  232 MB   |    Зарегистрирован:  1 год 1 месяц   |    Скачан:  0 раз

Полного источника не было: Никогда

 
   
 
 
 

[Цитировать]

Gabriel Faure - Requiem, Op.48 & Maurice Durufle - Requiem, Op. 9
Oxford New College Choir & Edward Higginbottom
Жанр: Sacred, Requiem
Страна-производитель диска: UK
Год издания диска: 1997
Издатель (лейбл): CRD
Номер по каталогу: 3466
Дата записи: 1990
Аудиокодек: FLAC
Тип рипа: image+.cue
Битрейт аудио: lossless
Продолжительность: 1:11:34
Источник: собственный рип
Наличие сканов в содержимом раздачи: да
Треклист:
Gabriel Faure - Requiem, Op.48
1. Introit et Kyrie (Chorus) 5:25
2. Offertoire (Bass) 7:50
3. Sanctus (Chorus) 3:05
4. Pie Jesu (Chorus) 3:00
5. Agnus Dei and Lux aeterna (Chorus) 6:02
6. Libera me (Baritone, Chorus) 4:46
7. In paradisum (Chorus) 4:07
Maurice Durufle - Requiem, Op. 9
8. Introit et Kyrie (Chorus) 6:58
9. Domine Jesu Christe (Bass, Chorus) 8:10
10. Sanctus (Chorus) 3:01
11. Pie Jesu (Alto, Chorus) 3:30
12. Agnus Dei (Chorus) 4:06
13. Lux aeterna (Chorus) 3:33
14. Libera me (Bass, Chorus) 5:32
15. In paradisum (Chorus) 3:45
Исполнители:
Oxford New College Choir
Edward Higginbottom - conductor

Лог создания рипа

Exact Audio Copy V1.0 beta 2 from 29. April 2011
EAC extraction logfile from 29. November 2014, 21:04
Choir of New College & Edward Higginbottom / Faure and Durufle: Requiems
Used drive : _NEC DVD_RW ND-3551A Adapter: 0 ID: 0
Read mode : SecureUtilize accurate stream : YesDefeat audio cache : YesMake use of C2 pointers : No
Read offset correction : 48Overread into Lead-In and Lead-Out : NoFill up missing offset samples with silence : YesDelete leading and trailing silent blocks : NoNull samples used in CRC calculations : YesUsed interface : Native Win32 interface for Win NT & 2000
Used output format : User Defined EncoderSelected bitrate : 128 kBit/sQuality : HighAdd ID3 tag : NoCommand line compressor : D:\Program Files\Exact Audio Copy\Flac\flac.exeAdditional command line options : -V -8 -T "Date=%year%" -T "Genre=%genre%" %source%
TOC of the extracted CD
Track | Start | Length | Start sector | End sector --------------------------------------------------------- 1 | 0:00.00 | 5:20.18 | 0 | 24017 2 | 5:20.18 | 8:00.37 | 24018 | 60054 3 | 13:20.55 | 3:07.13 | 60055 | 74092 4 | 16:27.68 | 3:02.30 | 74093 | 87772 5 | 19:30.23 | 6:01.57 | 87773 | 114904 6 | 25:32.05 | 4:47.68 | 114905 | 136497 7 | 30:19.73 | 3:21.57 | 136498 | 151629 8 | 33:41.55 | 7:00.73 | 151630 | 183202 9 | 40:42.53 | 8:12.47 | 183203 | 220149 10 | 48:55.25 | 3:03.70 | 220150 | 233944 11 | 51:59.20 | 3:31.03 | 233945 | 249772 12 | 55:30.23 | 4:08.22 | 249773 | 268394 13 | 59:38.45 | 3:34.10 | 268395 | 284454 14 | 63:12.55 | 5:34.63 | 284455 | 309567 15 | 68:47.43 | 2:47.10 | 309568 | 322102
Range status and errors
Selected range
Filename C:\RIP\Faure & Durufle - Requiems.wav
Peak level 87.3 % Extraction speed 2.7 X Range quality 99.9 % Test CRC D683974F Copy CRC D683974F Copy OK
No errors occurred
AccurateRip summary
Track 1 accurately ripped (confidence 1) [1B46EC46] (AR v2)Track 2 accurately ripped (confidence 1) [ACEE2D1F] (AR v2)Track 3 accurately ripped (confidence 1) [5E0360B5] (AR v2)Track 4 accurately ripped (confidence 1) [D54CAE0F] (AR v2)Track 5 accurately ripped (confidence 1) [9EFBA789] (AR v2)Track 6 accurately ripped (confidence 1) [D4F8AA67] (AR v2)Track 7 accurately ripped (confidence 1) [9EE7F623] (AR v2)Track 8 accurately ripped (confidence 1) [233E1C8F] (AR v2)Track 9 accurately ripped (confidence 1) [228EEDB0] (AR v2)Track 10 accurately ripped (confidence 1) [4D192CA9] (AR v2)Track 11 accurately ripped (confidence 1) [AE693C80] (AR v2)Track 12 accurately ripped (confidence 1) [B2019350] (AR v2)Track 13 accurately ripped (confidence 1) [123E9D63] (AR v2)Track 14 accurately ripped (confidence 1) [43D25930] (AR v2)Track 15 accurately ripped (confidence 1) [A46B7682] (AR v2)
All tracks accurately ripped
End of status report
==== Log checksum 007A3BBC90B4EA678937E6E185060BDA6632D76CA0580096E137916C5DDA71C1 ====
[teatrix.ru].t7888.torrent 
Торрент: Зарегистрирован [ 2015-10-14 02:42 ] · 5CB65C30B5F3FB24C15B4637305E6927E0A6F4E4

Скачать .torrent

Скачать

19 KB

Статус: проверено
Скачан: 0 раз
Размер: 232 MB
terms.php



Быстрый ответ

Имя:

      
Для отправки сообщений необходимо включить JavaScript
Показать сообщения:    

Текущее время: 07-Дек 15:28

Часовой пояс: UTC + 3


Вы можете начинать темы
Вы можете отвечать на сообщения
Вы не можете редактировать свои сообщения
Вы не можете удалять свои сообщения
Вы не можете голосовать в опросах
Вы не можете прикреплять файлы к сообщениям
Вы можете скачивать файлы