(Sacred) Перголези / Giovanni Battista Pergolesi - Stabat Mater, Salve regina, In coelestibus regnis (Gillian Fisher, Michael Chance, The King's Consort, Robert King) - 1988, FLAC (image+.cue) lossless


Статистика раздачи [Обновить пиров]
Размер:  243 MB   |    Зарегистрирован:  1 год 1 месяц   |    Скачан:  0 раз

Полного источника не было: Никогда

 
   
 
 
 

[Цитировать]

Giovanni Battista Pergolesi - Stabat Mater • Salve Regina • In Coelestibus Regnis
The King's Consort • Robert King
Жанр: Sacred
Страна-производитель диска: UK
Год издания диска: 1988
Издатель (лейбл): Hyperion
Номер по каталогу: 66294
Дата записи: 1987
Аудиокодек: FLAC
Тип рипа: image+.cue
Битрейт аудио: lossless
Продолжительность: 54:03
Источник: собственный рип
Наличие сканов в содержимом раздачи: да
Треклист:
Stabat mater, for soprano, alto, strings & organ in F major
1 Stabat Mater dolorosa 4:01
2 Cuius animam gementem 2:16
3 O quam tristis et afflicta 2:35
4 Quae morebat et dolebat 2:22
5 Quis est homo, qui non fleret 3:21
6 Vidit suum dulcem natum 3:51
7 Eia Mater, fons amoris 2:41
8 Fac, ut ardeat cor meum 2:20
9 Sancta Mater, istud agas 6:08
10 Fac, ut portem Christi mortem 4:05
11 Inflammatus et accensus 2:25
12 Quando corpus morietur 4:08
Salve regina, for soprano, strings & organ in A minor
13 Largo. Salve Regina, mater misericordiae 3:39
14 Allegro - Larghetto. Ad te clamamus exsules, fili Evae 2:19
15 Andante. Eia ergo advocata nostra iilos tuos 2:02
16 Largo. O clemens. O pia, O dulcis Virgo Maria, Salve 3:09
17 In coelestibus regnis, antiphon for alto, strings & organ 2:32
Исполнители:
Gillian Fisher - soprano
Michael Chance - countertenor
The King's Consort, dir. Robert King

Лог создания рипа

Exact Audio Copy V1.0 beta 2 from 29. April 2011
EAC extraction logfile from 29. November 2014, 18:38
The King's Consort / Stabat Mater, Salve Regina, In Coelestibus Regnis
Used drive : _NEC DVD_RW ND-3551A Adapter: 0 ID: 0
Read mode : SecureUtilize accurate stream : YesDefeat audio cache : YesMake use of C2 pointers : No
Read offset correction : 48Overread into Lead-In and Lead-Out : NoFill up missing offset samples with silence : YesDelete leading and trailing silent blocks : NoNull samples used in CRC calculations : YesUsed interface : Native Win32 interface for Win NT & 2000
Used output format : User Defined EncoderSelected bitrate : 128 kBit/sQuality : HighAdd ID3 tag : NoCommand line compressor : D:\Program Files\Exact Audio Copy\Flac\flac.exeAdditional command line options : -V -8 -T "Date=%year%" -T "Genre=%genre%" %source%
TOC of the extracted CD
Track | Start | Length | Start sector | End sector --------------------------------------------------------- 1 | 0:00.00 | 4:01.70 | 0 | 18144 2 | 4:01.70 | 2:16.70 | 18145 | 28414 3 | 6:18.65 | 2:35.03 | 28415 | 40042 4 | 8:53.68 | 2:22.02 | 40043 | 50694 5 | 11:15.70 | 3:21.28 | 50695 | 65797 6 | 14:37.23 | 3:51.62 | 65798 | 83184 7 | 18:29.10 | 2:41.35 | 83185 | 95294 8 | 21:10.45 | 2:20.00 | 95295 | 105794 9 | 23:30.45 | 6:08.63 | 105795 | 133457 10 | 29:39.33 | 4:05.57 | 133458 | 151889 11 | 33:45.15 | 2:25.15 | 151890 | 162779 12 | 36:10.30 | 4:08.40 | 162780 | 181419 13 | 40:18.70 | 3:39.73 | 181420 | 197917 14 | 43:58.68 | 2:19.62 | 197918 | 208404 15 | 46:18.55 | 2:02.43 | 208405 | 217597 16 | 48:21.23 | 3:09.27 | 217598 | 231799 17 | 51:30.50 | 2:32.33 | 231800 | 243232
Range status and errors
Selected range
Filename C:\RIP\Pergolesi - Stabat Mater (King).wav
Peak level 77.2 % Extraction speed 2.3 X Range quality 99.9 % Test CRC 9DDDB521 Copy CRC 9DDDB521 Copy OK
No errors occurred
AccurateRip summary
Track 1 accurately ripped (confidence 8) [EE5698BF] (AR v2)Track 2 accurately ripped (confidence 8) [6747112F] (AR v2)Track 3 accurately ripped (confidence 8) [55A6E6BA] (AR v2)Track 4 accurately ripped (confidence 8) [87ABC27F] (AR v2)Track 5 accurately ripped (confidence 8) [F450E8BB] (AR v2)Track 6 accurately ripped (confidence 8) [F7B27D0C] (AR v2)Track 7 accurately ripped (confidence 8) [8C9C3853] (AR v2)Track 8 accurately ripped (confidence 8) [2997F1B5] (AR v2)Track 9 accurately ripped (confidence 8) [C98D0F65] (AR v2)Track 10 cannot be verified as accurate (confidence 8) [DCCD73B2], AccurateRip returned [F4E08FAD] (AR v2)Track 11 accurately ripped (confidence 8) [AB1063D7] (AR v2)Track 12 accurately ripped (confidence 8) [45A7F0A2] (AR v2)Track 13 accurately ripped (confidence 8) [0B5183BB] (AR v2)Track 14 accurately ripped (confidence 8) [73A7271F] (AR v2)Track 15 accurately ripped (confidence 7) [9E012413] (AR v2)Track 16 accurately ripped (confidence 7) [EB32500D] (AR v2)Track 17 accurately ripped (confidence 7) [6097FA93] (AR v2)
16 трек(и) скопированы точно 1 трек(и) не удалось проверить на точность
Some tracks could not be verified as accurate
End of status report
==== Log checksum 70B17157BC6A4CA10FF54186027BA73CB373C09D2A395924010DF7ADE0911B88 ====
[teatrix.ru].t7889.torrent 
Торрент: Зарегистрирован [ 2015-10-14 02:42 ] · 57FDCF70DAA98375DEF8C738B8194589D42066A8

Скачать .torrent

Скачать

20 KB

Статус: проверено
Скачан: 0 раз
Размер: 243 MB
terms.php



Быстрый ответ

Имя:

      
Для отправки сообщений необходимо включить JavaScript
Показать сообщения:    

Текущее время: 03-Дек 22:48

Часовой пояс: UTC + 3


Вы можете начинать темы
Вы можете отвечать на сообщения
Вы не можете редактировать свои сообщения
Вы не можете удалять свои сообщения
Вы не можете голосовать в опросах
Вы не можете прикреплять файлы к сообщениям
Вы можете скачивать файлы