(Classical) Anton Bruckner - Te Deum; Wolfgang Amadeus Mozart - Requiem (Agnes Giebel, Marga Hoffgen, Josef Traxel, Gottlob Frick, Elisabeth Grummer, Helmut Krebs, Karl Forster, Rudolf Kempe) - ?, FLAC (image+.cue) lossless


Статистика раздачи [Обновить пиров]
Размер:  215 MB   |    Зарегистрирован:  1 год 1 месяц   |    Скачан:  0 раз

Полного источника не было: Никогда

 
   
 
 
 

[Цитировать]

Anton Bruckner - Te Deum; Wolfgang Amadeus Mozart - Requiem (Agnes Giebel, Marga Hoffgen, Josef Traxel, Gottlob Frick, Elisabeth Grummer, Helmut Krebs, Karl Forster, Rudolf Kempe)
Жанр: Classical
Страна-производитель диска: РФ
Год издания диска: ?
Издатель (лейбл): Private Classics
Номер по каталогу: -
Дата записи: 1955-1956
Аудиокодек: FLAC
Тип рипа: image+.cue
Битрейт аудио: lossless
Продолжительность: 79:25
Источник: собственный рип
сайт-источник/ник/другое: Из личной коллекции
Наличие сканов в содержимом раздачи: да
Треклист:
Anton Bruckner
Te deum
1. Te Deum laudamus
2. Te ergo quaesumus
3. Aeterna fac cum sanctis tuis
4. Salvum fac populum tuum
5. In te, Domine, speravi
Wolfgang Amadeus Mozart
Requiem
6. I. Introitus - Requiem aeternam
7. II. Kyrie eleison
8. III. Sequenz - Dies irae
9. Tuba mirum
10. Rex tremendae majestatis
11. Recordare
12. Confutatis maledictis
13. Lacrimosa
14. IV. Offertorium - Domine Jesu Christe
15. Hostias, et preces tibi, Domine
16. V Sanctus: Sanctus - Osanna I
17. Benedictus - Osanna II
18. VI. Agnus Dei
19. VII Communio: Lux aeterna - Cum sanctis tuis
Исполнители:
Te Deum:
Agnes Giebel, soprano
Marga Hoffgen, contralto
Josef Traxel, tenor
Gottlob Frick, bass
Chor der St. Hedwigs-Kathedrale, Berlin
Berliner Philharmoniker
Conductor: Karl Forster
Requiem:
Elisabeth Grummer, soprano
Marga Hoffgen, contralto
Helmut Krebs, tenor
Gottlob Frick, bass
Chor der St. Hedwigs-Kathedrale, Berlin
Berliner Philharmoniker
Conductor: Rudolf Kempe

Лог создания рипа

Exact Audio Copy V1.0 beta 3 from 29. August 2011
EAC extraction logfile from 24. November 2014, 19:49
Kempe, Forster / Mozart, Requiem; Bruckner, Te Deum
Used drive : HL-DT-STDVDRAM GSA-T40N Adapter: 0 ID: 0
Read mode : SecureUtilize accurate stream : YesDefeat audio cache : YesMake use of C2 pointers : No
Read offset correction : 667Overread into Lead-In and Lead-Out : NoFill up missing offset samples with silence : YesDelete leading and trailing silent blocks : NoNull samples used in CRC calculations : YesUsed interface : Native Win32 interface for Win NT & 2000
Used output format : User Defined EncoderSelected bitrate : 32 kBit/sQuality : HighAdd ID3 tag : NoCommand line compressor : C:\Program Files\Exact Audio Copy\Flac\flac.exeAdditional command line options : -V -8 -T "Date=%year%" -T "Genre=%genre%" %source%
TOC of the extracted CD
Track | Start | Length | Start sector | End sector --------------------------------------------------------- 1 | 0:00.00 | 6:03.35 | 0 | 27259 2 | 6:03.35 | 2:36.45 | 27260 | 39004 3 | 8:40.05 | 1:29.23 | 39005 | 45702 4 | 10:09.28 | 5:54.32 | 45703 | 72284 5 | 16:03.60 | 5:51.30 | 72285 | 98639 6 | 21:55.15 | 5:53.05 | 98640 | 125119 7 | 27:48.20 | 3:09.07 | 125120 | 139301 8 | 30:57.27 | 1:54.00 | 139302 | 147851 9 | 32:51.27 | 4:12.18 | 147852 | 166769 10 | 37:03.45 | 3:11.12 | 166770 | 181106 11 | 40:14.57 | 6:16.55 | 181107 | 209361 12 | 46:31.37 | 3:05.13 | 209362 | 223249 13 | 49:36.50 | 4:06.32 | 223250 | 241731 14 | 53:43.07 | 4:55.18 | 241732 | 263874 15 | 58:38.25 | 4:56.15 | 263875 | 286089 16 | 63:34.40 | 1:27.15 | 286090 | 292629 17 | 65:01.55 | 4:47.12 | 292630 | 314166 18 | 69:48.67 | 3:07.53 | 314167 | 328244 19 | 72:56.45 | 6:29.27 | 328245 | 357446
Range status and errors
Selected range
Filename D:\Rip\Bruckner.Te_Deum(Karl_Forster);Mozart.Requiem(Rudolf_Kempe)-BP(Private_Classics)\Kempe, Forster - Mozart, Requiem; Bruckner, Te Deum.wav
Peak level 99.6 % Extraction speed 4.4 X Range quality 100.0 % Test CRC CF12410A Copy CRC CF12410A Copy OK
No errors occurred
AccurateRip summary
Track 1 not present in databaseTrack 2 not present in databaseTrack 3 not present in databaseTrack 4 not present in databaseTrack 5 not present in databaseTrack 6 not present in databaseTrack 7 not present in databaseTrack 8 not present in databaseTrack 9 not present in databaseTrack 10 not present in databaseTrack 11 not present in databaseTrack 12 not present in databaseTrack 13 not present in databaseTrack 14 not present in databaseTrack 15 not present in databaseTrack 16 not present in databaseTrack 17 not present in databaseTrack 18 not present in databaseTrack 19 not present in database
None of the tracks are present in the AccurateRip database
End of status report
==== Log checksum 4B3D1BD7C96B80A385DC5D5502485412449FB774EB7A85568B0F2795CAEE9E1F ====

Содержание индексной карты (.CUE)

REM GENRE ClassicalREM DATE 1955REM DISCID 1D129D13REM COMMENT "ExactAudioCopy v1.0b3"PERFORMER "Kempe, Forster"TITLE "Mozart, Requiem; Bruckner, Te Deum"FILE "Kempe, Forster - Mozart, Requiem; Bruckner, Te Deum.flac" WAVE TRACK 01 AUDIO TITLE "Bruckner - Te deum : Te Deum laudamus -" PERFORMER "Kempe, Forster" INDEX 01 00:00:00 TRACK 02 AUDIO TITLE "Te ergo quaesumus -" PERFORMER "Kempe, Forster" INDEX 01 06:03:35 TRACK 03 AUDIO TITLE "Aeterna fac cum sanctis tuis -" PERFORMER "Kempe, Forster" INDEX 01 08:40:05 TRACK 04 AUDIO TITLE "Salvum fac populum tuum -" PERFORMER "Kempe, Forster" INDEX 01 10:09:28 TRACK 05 AUDIO TITLE "In te, Domine, speravi" PERFORMER "Kempe, Forster" INDEX 01 16:03:60 TRACK 06 AUDIO TITLE "Mozart - Requiem : I Introitus : Requiem aeternam" PERFORMER "Kempe, Forster" INDEX 01 21:55:15 TRACK 07 AUDIO TITLE "II Kyrie eleison" PERFORMER "Kempe, Forster" INDEX 01 27:48:20 TRACK 08 AUDIO TITLE "III Sequenz : Dies irae" PERFORMER "Kempe, Forster" INDEX 01 30:57:27 TRACK 09 AUDIO TITLE "Tuba mirum" PERFORMER "Kempe, Forster" INDEX 01 32:51:27 TRACK 10 AUDIO TITLE "Rex tremendae majestatis" PERFORMER "Kempe, Forster" INDEX 01 37:03:45 TRACK 11 AUDIO TITLE "Recordare" PERFORMER "Kempe, Forster" INDEX 01 40:14:57 TRACK 12 AUDIO TITLE "Confutatis maledictis" PERFORMER "Kempe, Forster" INDEX 01 46:31:37 TRACK 13 AUDIO TITLE "Lacrimosa" PERFORMER "Kempe, Forster" INDEX 01 49:36:50 TRACK 14 AUDIO TITLE "IV Offertorium : Domine Jesu Christe" PERFORMER "Kempe, Forster" INDEX 01 53:43:07 TRACK 15 AUDIO TITLE "Hostias et preces tibi, Domine" PERFORMER "Kempe, Forster" INDEX 01 58:38:25 TRACK 16 AUDIO TITLE "V Sanctus : Sanctus - Osanna I" PERFORMER "Kempe, Forster" INDEX 01 63:34:40 TRACK 17 AUDIO TITLE "Benedictus - Osanna II" PERFORMER "Kempe, Forster" INDEX 01 65:01:55 TRACK 18 AUDIO TITLE "VI Agnus Dei" PERFORMER "Kempe, Forster" INDEX 01 69:48:67 TRACK 19 AUDIO TITLE "VII Communio : Lux aeterna - Cum sanctis tuis" PERFORMER "Kempe, Forster" INDEX 01 72:56:45
[teatrix.ru].t7890.torrent 
Торрент: Зарегистрирован [ 2015-10-14 02:42 ] · 6E29B6B56929C1CF5283733BCCA063DEF8B2DF30

Скачать .torrent

Скачать

18 KB

Статус: проверено
Скачан: 0 раз
Размер: 215 MB
terms.php



Быстрый ответ

Имя:

      
Для отправки сообщений необходимо включить JavaScript
Показать сообщения:    

Текущее время: 08-Дек 17:21

Часовой пояс: UTC + 3


Вы можете начинать темы
Вы можете отвечать на сообщения
Вы не можете редактировать свои сообщения
Вы не можете удалять свои сообщения
Вы не можете голосовать в опросах
Вы не можете прикреплять файлы к сообщениям
Вы можете скачивать файлы