(Classical) Thomas Tallis - Missa Puer natus est nobis and other sacred works - The Cardinall\'s Musick, Andrew Carwood - 2014, FLAC (image+.cue) lossless


Статистика раздачи [Обновить пиров]
Размер:  287 MB   |    Зарегистрирован:  1 год 3 месяца   |    Скачан:  0 раз

Полного источника не было: Никогда

 
   
 
 
 

[Цитировать]

Thomas Tallis - Missa Puer natus est nobis and other sacred works - The Cardinall's Musick, Andrew Carwood
Жанр: Classical
Страна-производитель диска: UK
Год издания диска: 2014
Издатель (лейбл): Hyperion
Номер по каталогу: CDA68026
Дата записи: 2013
Аудиокодек: FLAC
Тип рипа: image+.cue
Битрейт аудио: lossless
Продолжительность: 67:39
Источник: собственный рип
Наличие сканов в содержимом раздачи: да
Треклист:
Thomas Tallis (c1505-1585)
[1] Salvator mundi, Domine
[2] Chant: Puer natus est nobis
[3]-[5] Missa Puer natus est nobis
[6] Quod chorus vatum
[7] Benedictus
[8] Magnificat a 4
[9] Audivi vocem de caelo
[10] Videte miraculum
Исполнители:
The Cardinall's Musick
Andrew Carwood

Лог создания рипа

Exact Audio Copy V1.0 beta 3 from 29. August 2011
EAC extraction logfile from 21. August 2014, 19:27
The Cardinall's Musick, Andrew Carwood / Tallis - Missa Puer natus est nobis & Other Sacred Music
Used drive : HL-DT-STDVDRAM GU70N Adapter: 0 ID: 0
Read mode : SecureUtilize accurate stream : YesDefeat audio cache : YesMake use of C2 pointers : No
Read offset correction : 48Overread into Lead-In and Lead-Out : NoFill up missing offset samples with silence : YesDelete leading and trailing silent blocks : NoNull samples used in CRC calculations : YesUsed interface : Native Win32 interface for Win NT & 2000
Used output format : User Defined EncoderSelected bitrate : 128 kBit/sQuality : HighAdd ID3 tag : NoCommand line compressor : C:\Program Files (x86)\Exact Audio Copy\Flac\flac.exeAdditional command line options : -V -8 -T "Date=%year%" -T "Genre=%genre%" %source%
TOC of the extracted CD
Track | Start | Length | Start sector | End sector --------------------------------------------------------- 1 | 0:00.00 | 4:16.17 | 0 | 19216 2 | 4:16.17 | 4:22.51 | 19217 | 38917 3 | 8:38.68 | 9:18.10 | 38918 | 80777 4 | 17:57.03 | 7:51.07 | 80778 | 116109 5 | 25:48.10 | 7:48.42 | 116110 | 151251 6 | 33:36.52 | 4:26.30 | 151252 | 171231 7 | 38:03.07 | 6:01.73 | 171232 | 198379 8 | 44:05.05 | 10:33.03 | 198380 | 245857 9 | 54:38.08 | 3:44.70 | 245858 | 262727 10 | 58:23.03 | 9:16.16 | 262728 | 304443
Range status and errors
Selected range
Filename C:\temp\CDA68026 - Tallis - Missa Puer natus est nobis (The Cardinall's Musick, Carwood - HYPERION)\CD\Tallis - Missa Puer natus est nobis.wav
Peak level 98.3 % Extraction speed 5.2 X Range quality 100.0 % Test CRC D1F9AAFA Copy CRC D1F9AAFA Copy OK
No errors occurred
AccurateRip summary
Track 1 not present in databaseTrack 2 not present in databaseTrack 3 not present in databaseTrack 4 not present in databaseTrack 5 not present in databaseTrack 6 not present in databaseTrack 7 not present in databaseTrack 8 not present in databaseTrack 9 not present in databaseTrack 10 not present in database
None of the tracks are present in the AccurateRip database
End of status report
==== Log checksum 11BF2972D263DC2CA854B0E047A23147543F62902AB7E42C1D09CE1A5663BD52 ====
[teatrix.ru].t7891.torrent 
Торрент: Зарегистрирован [ 2015-10-14 02:42 ] · 144DB5B8C61B066583B9BABCDA6A3C34CEAE4F66

Скачать .torrent

Скачать

24 KB

Статус: проверено
Скачан: 0 раз
Размер: 287 MB
terms.php



Быстрый ответ

Имя:

      
Для отправки сообщений необходимо включить JavaScript
Показать сообщения:    

Текущее время: 18-Янв 00:22

Часовой пояс: UTC + 3


Вы можете начинать темы
Вы можете отвечать на сообщения
Вы не можете редактировать свои сообщения
Вы не можете удалять свои сообщения
Вы не можете голосовать в опросах
Вы не можете прикреплять файлы к сообщениям
Вы можете скачивать файлы