(Choral) Leonard Bernstein - Chichester Psalms, Samuel Barber - Agnus Dei, Aaron Copland - In the Beginning & 4 Motets (Corydon Singers, Matthew Best) - 1987, FLAC (image+.cue) lossless


Статистика раздачи [Обновить пиров]
Размер:  216 MB   |    Зарегистрирован:  1 год 1 месяц   |    Скачан:  1 раз

Полного источника не было: 2 месяца 24 дня

 
   
 
 
 

[Цитировать]

Leonard Bernstein - Chichester Psalms • Samuel Barber - Agnus Dei •
Aaron Copland - In the Beginning & 4 Motets

Corydon Singers • Matthew Best
Жанр: Choral
Страна-производитель диска: UK
Год издания диска: 1987
Издатель (лейбл): Hyperion
Номер по каталогу: CDA 66219
Дата записи: 1986
Аудиокодек: FLAC
Тип рипа: image+.cue
Битрейт аудио: lossless
Продолжительность: 54:00
Источник: скачано с odeonmusic
Наличие сканов в содержимом раздачи: да (буклет в pdf)
Треклист:
Leonard Bernstein - Chichester Psalms, for boy soloist, chorus & orchestra
1 Psalm 108, verse 2 - Psalm 100 (Maestoso ma energico) 3:43
2 Psalm 23, verses 1-4 - Psalm 23, verses 5,6 (Andante con moto, ma tranquillo) 5:51
3 Psalm 131, - Psalm 133, verse 1 (Prelude - Peacefully flowing) 9:24
4 Samuel Barber - Agnus Dei, for chorus (arr. from 2nd mvt. of String Quartet), Op. 11 10:01
5 Aaron Copland - In the Beginning, for mezzo-soprano & chorus 16:08
Aaron Copland - 4 Motets, for chorus
6 Help us, O Lord 2:50
7 Have mercy on us, O my Lord 3:51
8 Sing ye praises to our King 2:08
Исполнители:
Corydon Singers
Matthew Best - conductor

Лог создания рипа

Exact Audio Copy V1.0 beta 3 from 29. August 2011
EAC extraction logfile from 20. May 2014, 12:14
Matthew Best / Bernstein - Chichester Psalms - Corydon Singers
Used drive : TSSTcorpCDDVDW SH-222BB Adapter: 2 ID: 1
Read mode : SecureUtilize accurate stream : YesDefeat audio cache : YesMake use of C2 pointers : No
Read offset correction : 6Overread into Lead-In and Lead-Out : NoFill up missing offset samples with silence : YesDelete leading and trailing silent blocks : NoNull samples used in CRC calculations : YesUsed interface : Native Win32 interface for Win NT & 2000
Used output format : User Defined EncoderSelected bitrate : 896 kBit/sQuality : HighAdd ID3 tag : NoCommand line compressor : C:\Program Files\Exact Audio Copy\FLAC\FLAC.EXEAdditional command line options : -8 -V -T "TITLE=%title%" -T "ARTIST=%artist%" -T "ALBUMARTIST=%albumartist%" -T "ALBUM=%albumtitle%" -T "DATE=%year%" -T "TRACKNUMBER=%tracknr%" -T "TRACKTOTAL=%numtracks%" -T "GENRE=%genre%" -T "COMMENT=%comment%" -T "PERFORMER=%albuminterpret%" -T "COMPOSER=%composer%" %source% -o %dest%
TOC of the extracted CD
Track | Start | Length | Start sector | End sector --------------------------------------------------------- 1 | 0:00.00 | 3:43.62 | 0 | 16786 2 | 3:43.62 | 5:51.33 | 16787 | 43144 3 | 9:35.20 | 9:24.00 | 43145 | 85444 4 | 18:59.20 | 10:01.55 | 85445 | 130574 5 | 29:01.00 | 16:08.30 | 130575 | 203204 6 | 45:09.30 | 2:50.55 | 203205 | 216009 7 | 48:00.10 | 3:51.62 | 216010 | 233396 8 | 51:51.72 | 2:08.28 | 233397 | 243024
Range status and errors
Selected range
Filename E:\4000\[4170] Bernstein – Chichester Psalms – Corydon Singers\Bernstein - Chichester Psalms - Corydon Singers.wav
Peak level 100.0 % Extraction speed 6.4 X Range quality 99.9 % Test CRC 591D67D9 Copy CRC 591D67D9 Copy OK
No errors occurred
AccurateRip summary
Track 1 accurately ripped (confidence 2) [86A8AA39] (AR v2)Track 2 accurately ripped (confidence 2) [A8465F1C] (AR v2)Track 3 accurately ripped (confidence 2) [E4AA2BD8] (AR v2)Track 4 accurately ripped (confidence 2) [D81DDBE6] (AR v2)Track 5 accurately ripped (confidence 2) [8565D99F] (AR v2)Track 6 accurately ripped (confidence 2) [1C7CF113] (AR v2)Track 7 accurately ripped (confidence 2) [19D51A74] (AR v2)Track 8 accurately ripped (confidence 2) [5E058B6F] (AR v2)
All tracks accurately ripped
End of status report
==== Log checksum CA33F21A8AB8BE476B2852CF3872DF00AFB25CC9873E1A66ADDD10337EF8F401 ====

Лог проверки качества

AUDIOCHECKER v2.0 beta (build 457) - by Dester - opdester@freemail.hu~~~~~~~~~~~~~~~~~~~~~~~~~~~~~~~~~~-=== DO NOT EDIT THIS FILE! ===-
Path: ...\Bernstein - Chichester Psalms (Best)
1 -=- Bernstein - Chichester Psalms - Corydon Singers.flac -=- CDDA (100%)
190070404
[teatrix.ru].t7892.torrent 
Торрент: Зарегистрирован [ 2015-10-14 02:42 ] · AA1B14BF5309FF7C389901AD040D977AD7C105A2

Скачать .torrent

Скачать

18 KB

Статус: проверено
Скачан: 1 раз
Размер: 216 MB
terms.php



Быстрый ответ

Имя:

      
Для отправки сообщений необходимо включить JavaScript
Показать сообщения:    

Текущее время: 07-Дек 15:33

Часовой пояс: UTC + 3


Вы можете начинать темы
Вы можете отвечать на сообщения
Вы не можете редактировать свои сообщения
Вы не можете удалять свои сообщения
Вы не можете голосовать в опросах
Вы не можете прикреплять файлы к сообщениям
Вы можете скачивать файлы