(Oratorio) Handel - Esther (Kirkby, Kwella, Minter, Partridge, Rolfe Johnson, Thomas, Elliott; Hogwood) - 1985, FLAC (image+.cue) lossless


Статистика раздачи [Обновить пиров]
Размер:  476 MB   |    Зарегистрирован:  1 год 1 месяц   |    Скачан:  1 раз

Полного источника не было: 2 месяца 7 дней

 
   
 
 
 

[Цитировать]

Handel - Esther (Kirkby, Kwella, Minter, Partridge, Rolfe Johnson, Thomas, Elliott; Hogwood)
Жанр: Oratorio
Страна-производитель диска: England
Год издания диска: 1985
Издатель (лейбл): L'Oiseau-Lyre
Номер по каталогу: 414 423-2
Дата записи: October 1984
Аудиокодек: FLAC
Тип рипа: image+.cue
Битрейт аудио: lossless
Продолжительность: 2CD
Источник: собственный рип
сайт-источник/ник/другое: Из личной коллекции
Наличие сканов в содержимом раздачи: да
Треклист:

CD1

CD1
Scene 1
1. Ouverture...Recit "Tis greater far to spare"
2. "Pluck root and branch from out the land"
3. "Shall we the God of Israel fear?"
Scene 2
4. "Tune your harps to cheerful strains"
5. "Shall we of servitude complain"
6. "Praise the Lord with cheerful noise"
7. "Sing songs of praise, bow down the knee"
Scene 3
8. "Ye sons of Israel mourn"
9. "O Jordan, Jordan, sacred tide"
Scene 4
10. "Dread not, righteous Queen, the danger
11. "Tears assist me, pity moving"
12. "Save us, O Lord"

CD2

CD2
Scene 5
1. "Who dares intrude into our presence"
2. "Who calls my parting soul from death?"
3. "O beauteous Queen"...Recit:"If I find favour"
4. "How can I stay when love invites"
5. "Virtue, truth and innocence"
6. "Jehovah, crown'd with glory bright"
Scene 6
7. "Turn not, O Queen, thy face away"
8. "Flatt'ring tongue, no more I hear thee!"
9. "How art thou fall'n from thy height!"
10. "The Lord our enemy has slain"
Исполнители:
1st Israelite - Elliott, Paul
Ahasuerus - Johnson, Anthony Rolfe
Officier - King, Andrew
Israelite woman - Kirkby, Emma
Esther - Kwella, Patrizia
Priest - Minter, Drew
Mordecai - Partridge, Ian
Academy of Ancient Music, Conductor - Hogwood, Christopher

Лог создания рипа

CD1

CD1
Exact Audio Copy V1.0 beta 3 from 29. August 2011
EAC extraction logfile from 4. November 2014, 13:46
George Frideric Handel / Handel [Hogwood] Esther, Disc 1
Used drive : HL-DT-STDVDRAM GSA-T40N Adapter: 0 ID: 0
Read mode : Secure
Utilize accurate stream : Yes
Defeat audio cache : Yes
Make use of C2 pointers : No
Read offset correction : 667
Overread into Lead-In and Lead-Out : No
Fill up missing offset samples with silence : Yes
Delete leading and trailing silent blocks : No
Null samples used in CRC calculations : Yes
Used interface : Native Win32 interface for Win NT & 2000
Used output format : User Defined Encoder
Selected bitrate : 32 kBit/s
Quality : High
Add ID3 tag : No
Command line compressor : C:\Program Files\Exact Audio Copy\Flac\flac.exe
Additional command line options : -V -8 -T "Date=%year%" -T "Genre=%genre%" %source%
TOC of the extracted CD
Track | Start | Length | Start sector | End sector
---------------------------------------------------------
1 | 0:00.33 | 7:45.65 | 33 | 34972
2 | 7:46.23 | 2:09.42 | 34973 | 44689
3 | 9:55.65 | 1:54.53 | 44690 | 53292
4 | 11:50.43 | 3:55.72 | 53293 | 70989
5 | 15:46.40 | 1:26.08 | 70990 | 77447
6 | 17:12.48 | 6:08.15 | 77448 | 105062
7 | 23:20.63 | 6:11.70 | 105063 | 132957
8 | 29:32.58 | 2:05.47 | 132958 | 142379
9 | 31:38.30 | 9:34.45 | 142380 | 185474
10 | 41:13.00 | 3:45.53 | 185475 | 202402
11 | 44:58.53 | 3:01.35 | 202403 | 216012
12 | 48:00.13 | 1:32.27 | 216013 | 222939
Range status and errors
Selected range
Filename D:\Rip\Handel.Esther-Hogwood,1984.2CD(L'Oiseau-Lyre,414 423-2)\CD1\George Frideric Handel - Handel [Hogwood] Esther, Disc 1.wav
Peak level 87.8 %
Extraction speed 4.0 X
Range quality 100.0 %
Test CRC 62D6E1BE
Copy CRC 62D6E1BE
Copy OK
No errors occurred
AccurateRip summary
Track 1 accurately ripped (confidence 5) [BD54EC68] (AR v2)
Track 2 accurately ripped (confidence 5) [92F5CD9C] (AR v2)
Track 3 accurately ripped (confidence 5) [0F9FFC29] (AR v2)
Track 4 accurately ripped (confidence 5) [02806DBF] (AR v2)
Track 5 accurately ripped (confidence 5) [F73D5761] (AR v2)
Track 6 accurately ripped (confidence 5) [C3CFA3AA] (AR v2)
Track 7 accurately ripped (confidence 5) [1992E5C3] (AR v2)
Track 8 accurately ripped (confidence 5) [17CFE028] (AR v2)
Track 9 accurately ripped (confidence 5) [19EB41E8] (AR v2)
Track 10 accurately ripped (confidence 5) [A17DB177] (AR v2)
Track 11 accurately ripped (confidence 5) [15848A87] (AR v2)
Track 12 accurately ripped (confidence 5) [0A459293] (AR v2)
All tracks accurately ripped
End of status report
==== Log checksum 554EC2F75D3F9EBE0E73DE75549FAD78605F63E270674A082BDB7E0510373C8D ====

CD2

CD2
Exact Audio Copy V1.0 beta 3 from 29. August 2011
EAC extraction logfile from 4. November 2014, 15:55
George Frideric Handel / Handel [Hogwood] Esther, Disc 2
Used drive : HL-DT-STDVDRAM GSA-T40N Adapter: 0 ID: 0
Read mode : Secure
Utilize accurate stream : Yes
Defeat audio cache : Yes
Make use of C2 pointers : No
Read offset correction : 667
Overread into Lead-In and Lead-Out : No
Fill up missing offset samples with silence : Yes
Delete leading and trailing silent blocks : No
Null samples used in CRC calculations : Yes
Used interface : Native Win32 interface for Win NT & 2000
Used output format : User Defined Encoder
Selected bitrate : 32 kBit/s
Quality : High
Add ID3 tag : No
Command line compressor : C:\Program Files\Exact Audio Copy\Flac\flac.exe
Additional command line options : -V -8 -T "Date=%year%" -T "Genre=%genre%" %source%
TOC of the extracted CD
Track | Start | Length | Start sector | End sector
---------------------------------------------------------
1 | 0:00.33 | 1:08.25 | 33 | 5157
2 | 1:08.58 | 2:34.50 | 5158 | 16757
3 | 3:43.33 | 7:38.47 | 16758 | 51154
4 | 11:22.05 | 3:54.15 | 51155 | 68719
5 | 15:16.20 | 2:33.50 | 68720 | 80244
6 | 17:49.70 | 6:58.53 | 80245 | 111647
7 | 24:48.48 | 2:10.62 | 111648 | 121459
8 | 26:59.35 | 5:11.65 | 121460 | 144849
9 | 32:11.25 | 4:15.63 | 144850 | 164037
10 | 36:27.13 | 10:45.40 | 164038 | 212452
Range status and errors
Selected range
Filename D:\Rip\Handel.Esther-Hogwood,1984.2CD(L'Oiseau-Lyre,414 423-2)\CD2\George Frideric Handel - Handel [Hogwood] Esther, Disc 2.wav
Peak level 96.3 %
Extraction speed 3.6 X
Range quality 100.0 %
Test CRC 1D506304
Copy CRC 1D506304
Copy OK
No errors occurred
AccurateRip summary
Track 1 accurately ripped (confidence 2) [39B6C6BB] (AR v2)
Track 2 accurately ripped (confidence 2) [333D2776] (AR v2)
Track 3 accurately ripped (confidence 2) [4CC534CB] (AR v2)
Track 4 accurately ripped (confidence 2) [7F7647BB] (AR v2)
Track 5 accurately ripped (confidence 2) [F6F788E9] (AR v2)
Track 6 accurately ripped (confidence 2) [FA9844AE] (AR v2)
Track 7 accurately ripped (confidence 2) [C8645F9E] (AR v2)
Track 8 accurately ripped (confidence 2) [37AB7B7A] (AR v2)
Track 9 accurately ripped (confidence 2) [095307AD] (AR v2)
Track 10 accurately ripped (confidence 2) [AE960136] (AR v2)
All tracks accurately ripped
End of status report
==== Log checksum E2ECC800CF002DE3E13587AD694747D8A922A6ADB115E85766F2D16C4BFE695C ====

Содержание индексной карты (.CUE)

CD1

CD1
REM GENRE Classique
REM DATE 1985
REM DISCID A30B9C0C
REM COMMENT "ExactAudioCopy v1.0b3"
PERFORMER "George Frideric Handel"
TITLE "Handel [Hogwood] Esther, Disc 1"
FILE "George Frideric Handel - Handel [Hogwood] Esther, Disc 1.flac" WAVE
TRACK 01 AUDIO
TITLE "Scene 1. Overture - Recitative: ''Tis Greater Far To Spare'"
PERFORMER "George Frideric Handel"
INDEX 00 00:00:00
INDEX 01 00:00:33
TRACK 02 AUDIO
TITLE "Scene 1. Aria: 'Pluck Root And Branch From Out The Land'"
PERFORMER "George Frideric Handel"
INDEX 01 07:46:23
TRACK 03 AUDIO
TITLE "Scene 1. Chorus: 'Shall We The God Of Israel Fear?'"
PERFORMER "George Frideric Handel"
INDEX 01 09:55:65
TRACK 04 AUDIO
TITLE "Scene 2. Aria: 'Tune Your Harps To Cheerful Strains'"
PERFORMER "George Frideric Handel"
INDEX 01 11:50:43
TRACK 05 AUDIO
TITLE "Scene 2. Chorus: 'Shall We Of Servitude Complain'"
PERFORMER "George Frideric Handel"
INDEX 01 15:46:40
TRACK 06 AUDIO
TITLE "Scene 2. Aria: 'Praise The Lord With Cheerful Noise'"
PERFORMER "George Frideric Handel"
INDEX 01 17:12:48
TRACK 07 AUDIO
TITLE "Scene 2. Aria: 'Sing Songs Of Praise, Bow Down The Knee'"
PERFORMER "George Frideric Handel"
INDEX 01 23:20:63
TRACK 08 AUDIO
TITLE "Scene 3. Recitative: 'How Have Our Sins Provoked The Lord!' - Chorus 'Ye Sons..."
PERFORMER "George Frideric Handel"
INDEX 01 29:32:58
TRACK 09 AUDIO
TITLE "Scene 3. Aria: 'O Jordan, Jordan, Sacred Tide' - [Scene 4] Recitative: 'Why S..."
PERFORMER "George Frideric Handel"
INDEX 01 31:38:30
TRACK 10 AUDIO
TITLE "Scene 4. Aria: 'Dread Not, Righteous Queen, The Danger'"
PERFORMER "George Frideric Handel"
INDEX 01 41:13:00
TRACK 11 AUDIO
TITLE "Scene 4. Aria: 'Tears Assist Me, Pity Moving'"
PERFORMER "George Frideric Handel"
INDEX 01 44:58:53
TRACK 12 AUDIO
TITLE "Scene 4. Chorus: 'Save Us, O Lord'"
PERFORMER "George Frideric Handel"
INDEX 01 48:00:13

CD2

CD2
REM GENRE Classique
REM DATE 1985
REM DISCID 7B0B100A
REM COMMENT "ExactAudioCopy v1.0b3"
PERFORMER "George Frideric Handel"
TITLE "Handel [Hogwood] Esther, Disc 2"
FILE "George Frideric Handel - Handel [Hogwood] Esther, Disc 2.flac" WAVE
TRACK 01 AUDIO
TITLE "Scene 5-1. Recitativo: Who dares intrude into our presence (Ahasuerus)"
PERFORMER "George Frideric Handel"
INDEX 00 00:00:00
INDEX 01 00:00:33
TRACK 02 AUDIO
TITLE "Scene 5-2. Dueto: Who calls my parting soul from death (Esther, Ahasuerus)"
PERFORMER "George Frideric Handel"
INDEX 01 01:08:58
TRACK 03 AUDIO
TITLE "Scene 5-3. Aria: O beauteous Queen (Ahasuerus)"
PERFORMER "George Frideric Handel"
INDEX 01 03:43:33
TRACK 04 AUDIO
TITLE "Scene 5-4. Aria: How can I stay when love invites (Ahasuerus)"
PERFORMER "George Frideric Handel"
INDEX 01 11:22:05
TRACK 05 AUDIO
TITLE "Scene 5-5. Chorus: virtue, truth and innocence"
PERFORMER "George Frideric Handel"
INDEX 01 15:16:20
TRACK 06 AUDIO
TITLE "Scene 5-6. Arioso: Jehovah, crownd with glory bright (Priest) Chorus: He come..."
PERFORMER "George Frideric Handel"
INDEX 01 17:49:70
TRACK 07 AUDIO
TITLE "Scene 6-1. Arioso: Turn not, O Queen, thy face away (Haman)"
PERFORMER "George Frideric Handel"
INDEX 01 24:48:48
TRACK 08 AUDIO
TITLE "Scene 6-2. Aria: Flattring tongue, no more I hear thee! (Esther)"
PERFORMER "George Frideric Handel"
INDEX 01 26:59:35
TRACK 09 AUDIO
TITLE "Scene 6-3. Aria: How art thou falln from thy height! (Haman)"
PERFORMER "George Frideric Handel"
INDEX 01 32:11:25
TRACK 10 AUDIO
TITLE "Scene 6-4. Chorus: The Lord our enemy has slain-Solo: Let Israel songs of joy..."
PERFORMER "George Frideric Handel"
INDEX 01 36:27:13
[teatrix.ru].t7894.torrent 
Торрент: Зарегистрирован [ 2015-10-14 02:42 ] · 0EF31A283153C71FD870B704A050534092DAE8F6

Скачать .torrent

Скачать

21 KB

Статус: проверено
Скачан: 1 раз
Размер: 476 MB
terms.php



Быстрый ответ

Имя:

      
Для отправки сообщений необходимо включить JavaScript
Показать сообщения:    

Текущее время: 05-Дек 01:22

Часовой пояс: UTC + 3


Вы можете начинать темы
Вы можете отвечать на сообщения
Вы не можете редактировать свои сообщения
Вы не можете удалять свои сообщения
Вы не можете голосовать в опросах
Вы не можете прикреплять файлы к сообщениям
Вы можете скачивать файлы