(Classical, 20th century) Percy Grainger - Works for Large Chorus and Orchestra - Sydney Chamber Choir, Melbourne Symphony Orchestra Chorus, Melbourne Symphony Orchestra, Andrew Davis - 2013, FLAC (image+.cue) lossless


Статистика раздачи [Обновить пиров]
Размер:  299 MB   |    Зарегистрирован:  1 год 1 месяц   |    Скачан:  0 раз

Полного источника не было: Никогда

 
   
 
 
 

[Цитировать]

Percy Grainger - Works for Large Chorus and Orchestra - Sydney Chamber Choir, Melbourne Symphony Orchestra Chorus, Melbourne Symphony Orchestra, Andrew Davis
Жанр: Classical, 20th century
Страна-производитель диска: UK
Год издания диска: 2013
Издатель (лейбл): Chandos Records
Номер по каталогу: CHSA 5121
Дата записи: 2012
Аудиокодек: FLAC
Тип рипа: image+.cue
Битрейт аудио: lossless
Продолжительность: 72:39
Источник: собственный рип
Наличие сканов в содержимом раздачи: да
Треклист:
Percy Grainger (1882-1961)
premiere recording
[1] King Solomon's Espousals
[2] Danny Deever
premiere recording in this version
[3] Marching Song of Democracy
premiere recording
[4] The Wraith of Odin*
premiere recording in this version
[5] The Hunter in his Career
premiere recording
[6] Sir Eglamore*
premiere recording
[7] The Lads of Wamphray*
[8] The Bride's Tragedy
[9] Tribute to Foster
premiere recording
[10] Thanksgiving Song
Исполнители:
Sydney Chamber Choir*
Melbourne Symphony Orchestra Chorus
Melbourne Symphony Orchestra
Sir Andrew Davis

Лог создания рипа

Exact Audio Copy V1.0 beta 3 from 29. August 2011
EAC extraction logfile from 8. November 2014, 15:07
Melbourne SO Chorus, Melbourne SO, Andrew Davis / Grainger - Works for Large Chorus and Orchestra
Used drive : HL-DT-STDVDRAM GU70N Adapter: 0 ID: 0
Read mode : SecureUtilize accurate stream : YesDefeat audio cache : YesMake use of C2 pointers : No
Read offset correction : 48Overread into Lead-In and Lead-Out : NoFill up missing offset samples with silence : YesDelete leading and trailing silent blocks : NoNull samples used in CRC calculations : YesUsed interface : Native Win32 interface for Win NT & 2000
Used output format : User Defined EncoderSelected bitrate : 128 kBit/sQuality : HighAdd ID3 tag : NoCommand line compressor : C:\Program Files (x86)\Exact Audio Copy\Flac\flac.exeAdditional command line options : -V -8 -T "Date=%year%" -T "Genre=%genre%" %source%
TOC of the extracted CD
Track | Start | Length | Start sector | End sector --------------------------------------------------------- 1 | 0:00.00 | 8:57.63 | 0 | 40337 2 | 8:57.63 | 4:10.00 | 40338 | 59087 3 | 13:07.63 | 7:05.20 | 59088 | 90982 4 | 20:13.08 | 5:15.40 | 90983 | 114647 5 | 25:28.48 | 1:45.15 | 114648 | 122537 6 | 27:13.63 | 4:03.00 | 122538 | 140762 7 | 31:16.63 | 7:11.50 | 140763 | 173137 8 | 38:28.38 | 10:17.00 | 173138 | 219412 9 | 48:45.38 | 10:34.10 | 219413 | 266972 10 | 59:19.48 | 13:23.27 | 266973 | 327224
Range status and errors
Selected range
Filename C:\temp\CHSA_05121 - Grainger - Works for Large Chorus and Orchestra\Grainger - Works for Large Chorus and Orchestra.wav
Peak level 93.0 % Extraction speed 2.3 X Range quality 100.0 % Test CRC ADF91C79 Copy CRC ADF91C79 Copy OK
No errors occurred
AccurateRip summary
Track 1 accurately ripped (confidence 1) [EB1C22A4] (AR v2)Track 2 accurately ripped (confidence 1) [D2A866EF] (AR v2)Track 3 accurately ripped (confidence 1) [EBC95F8C] (AR v2)Track 4 accurately ripped (confidence 1) [E0A87399] (AR v2)Track 5 accurately ripped (confidence 1) [8B5DD060] (AR v2)Track 6 accurately ripped (confidence 1) [71EB0A18] (AR v2)Track 7 accurately ripped (confidence 1) [AE12C733] (AR v2)Track 8 accurately ripped (confidence 1) [0DDC1D2A] (AR v2)Track 9 accurately ripped (confidence 1) [3AB9F9E5] (AR v2)Track 10 accurately ripped (confidence 1) [783861D5] (AR v2)
All tracks accurately ripped
End of status report
==== Log checksum B86FC69FCCDF18C340D8B75254E6CF6A47BF32A583855F6E7ACF1CA4338A97C4 ====
[teatrix.ru].t7895.torrent 
Торрент: Зарегистрирован [ 2015-10-14 02:42 ] · 686C8CAE2589458C243043037CF6B4D0F7405228

Скачать .torrent

Скачать

25 KB

Статус: проверено
Скачан: 0 раз
Размер: 299 MB
terms.php



Быстрый ответ

Имя:

      
Для отправки сообщений необходимо включить JavaScript
Показать сообщения:    

Текущее время: 04-Дек 02:56

Часовой пояс: UTC + 3


Вы можете начинать темы
Вы можете отвечать на сообщения
Вы не можете редактировать свои сообщения
Вы не можете удалять свои сообщения
Вы не можете голосовать в опросах
Вы не можете прикреплять файлы к сообщениям
Вы можете скачивать файлы