(Classical) Дмитрий Шостакович - Казнь Степана Разина; Сюита из музыки к фильму «Зоя»; Сюита на финские темы - Shenyang, State Choir "Latvija", Helsinki Philharmonic Orchestra, Vladimir Ashkenazy (Владимир Ашкенази) - 2013, FLAC (image+.cue


Статистика раздачи [Обновить пиров]
Размер:  270 MB   |    Зарегистрирован:  1 год 1 месяц   |    Скачан:  0 раз

Полного источника не было: Никогда

 
   
 
 
 

[Цитировать]

Дмитрий Шостакович - Казнь Степана Разина; Сюита из музыки к фильму «Зоя»; Сюита на финские темы - Shenyang, State Choir "Latvija", Helsinki Philharmonic Orchestra, Vladimir Ashkenazy
Жанр: Classical
Страна-производитель диска: Finland
Год издания диска: 2013
Издатель (лейбл): Ondine
Номер по каталогу: ODE 1225-2
Дата записи: 2013
Аудиокодек: FLAC
Тип рипа: image+.cue
Битрейт аудио: lossless
Продолжительность: 65:55
Источник: собственный рип
Наличие сканов в содержимом раздачи: да
Треклист:
Дмитрий Шостакович
[1] Казнь Степана Разина, Op.119 (1964)
вокально-симфоническая поэма на слова Е. Евтушенко для баса, хора и оркестра
Shenyang bass-baritone
[2]-[6] Сюита из музыки к фильму «Зоя», Op.64а (1944)
[7]-[13] Сюита на финские темы для солистов и камерного ансамбля
Mari Palo soprano
Tuomas Katajala tenor
Исполнители:
Shenyang bass-baritone
Mari Palo soprano
Tuomas Katajala tenor
State Choir "Latvija"
Helsinki Philharmonic Orchestra
Vladimir Ashkenazy

Лог создания рипа

Exact Audio Copy V1.0 beta 3 from 29. August 2011
EAC extraction logfile from 1. November 2014, 21:45
Helsinki Philharmonic Orchestra, Vladimir Ashkenazy / Shostakovich - The Execution of Stepan Razin; Zoya Suite
Used drive : HL-DT-STDVDRAM GU70N Adapter: 0 ID: 0
Read mode : SecureUtilize accurate stream : YesDefeat audio cache : YesMake use of C2 pointers : No
Read offset correction : 48Overread into Lead-In and Lead-Out : NoFill up missing offset samples with silence : YesDelete leading and trailing silent blocks : NoNull samples used in CRC calculations : YesUsed interface : Native Win32 interface for Win NT & 2000
Used output format : User Defined EncoderSelected bitrate : 128 kBit/sQuality : HighAdd ID3 tag : NoCommand line compressor : C:\Program Files (x86)\Exact Audio Copy\Flac\flac.exeAdditional command line options : -V -8 -T "Date=%year%" -T "Genre=%genre%" %source%
TOC of the extracted CD
Track | Start | Length | Start sector | End sector --------------------------------------------------------- 1 | 0:00.00 | 25:43.48 | 0 | 115772 2 | 25:43.48 | 8:09.70 | 115773 | 152517 3 | 33:53.43 | 5:03.30 | 152518 | 175272 4 | 38:56.73 | 5:22.33 | 175273 | 199455 5 | 44:19.31 | 4:24.32 | 199456 | 219287 6 | 48:43.63 | 5:56.46 | 219288 | 246033 7 | 54:40.34 | 0:51.56 | 246034 | 249914 8 | 55:32.15 | 1:12.55 | 249915 | 255369 9 | 56:44.70 | 1:48.45 | 255370 | 263514 10 | 58:33.40 | 1:55.57 | 263515 | 272196 11 | 60:29.22 | 1:05.53 | 272197 | 277124 12 | 61:35.00 | 2:23.38 | 277125 | 287887 13 | 63:58.38 | 1:57.34 | 287888 | 296696
Range status and errors
Selected range
Filename C:\temp\Shostakovich - The Execution of Stepan Razin; Zoya Suite\Shostakovich - The Execution of Stepan Razin; Zoya Suite.wav
Peak level 100.0 % Extraction speed 2.2 X Range quality 100.0 % Test CRC 9D14AE4B Copy CRC 9D14AE4B Copy OK
No errors occurred
AccurateRip summary
Track 1 accurately ripped (confidence 3) [9178D0B7] (AR v2)Track 2 accurately ripped (confidence 3) [D469998F] (AR v2)Track 3 accurately ripped (confidence 3) [CA9AAAF9] (AR v2)Track 4 accurately ripped (confidence 3) [75685B8D] (AR v2)Track 5 accurately ripped (confidence 3) [1E413CD9] (AR v2)Track 6 accurately ripped (confidence 3) [91233639] (AR v2)Track 7 accurately ripped (confidence 3) [E2D4A59B] (AR v2)Track 8 accurately ripped (confidence 3) [26D64CDB] (AR v2)Track 9 accurately ripped (confidence 3) [E9305C6D] (AR v2)Track 10 accurately ripped (confidence 3) [D0BE78E9] (AR v2)Track 11 accurately ripped (confidence 3) [0EC007F6] (AR v2)Track 12 accurately ripped (confidence 3) [92649868] (AR v2)Track 13 accurately ripped (confidence 3) [BDEF8906] (AR v2)
All tracks accurately ripped
End of status report
==== Log checksum 9B3489BF548FB2B14DDBCDBBF7ECBB7D4CFB8FBD9C1F3A6423524239A6863148 ====
[teatrix.ru].t7896.torrent 
Торрент: Зарегистрирован [ 2015-10-14 02:42 ] · 19F627DE411180B96960C68EB5BE01642D37E980

Скачать .torrent

Скачать

23 KB

Статус: проверено
Скачан: 0 раз
Размер: 270 MB
terms.php



Быстрый ответ

Имя:

      
Для отправки сообщений необходимо включить JavaScript
Показать сообщения:    

Текущее время: 03-Дек 05:26

Часовой пояс: UTC + 3


Вы можете начинать темы
Вы можете отвечать на сообщения
Вы не можете редактировать свои сообщения
Вы не можете удалять свои сообщения
Вы не можете голосовать в опросах
Вы не можете прикреплять файлы к сообщениям
Вы можете скачивать файлы