(Sacred, Motets) Thomas Tallis - Latin Church Music (Spem in alium, Lamentations of Jeremiah etc) (Taverner Consort & Choir, Andrew Parrott) - 1989, FLAC (image+.cue) lossless


Статистика раздачи [Обновить пиров]
Размер:  551 MB   |    Зарегистрирован:  1 год 1 месяц   |    Скачан:  0 раз

Полного источника не было: Никогда

 
   
 
 
 

[Цитировать]

Thomas Tallis - Latin Church Music
Taverner Consort & Choir, Andrew Parrott
Жанр: Sacred
Год издания диска: 1989
Издатель (лейбл): Virgin
Номер по каталогу: 7243 5 62230 2
Дата записи: 1986-1987
Аудиокодек: FLAC
Тип рипа: image+.cue
Битрейт аудио: lossless
Продолжительность: 2:09:27
Источник: собственный рип
Наличие сканов в содержимом раздачи: да
Треклист:
CD 1
1. Videte miraculum, motet for 6 voices, P. 293 9:32
2 Homo quidam fecit coenam, motet for 6 voices, P. 282 5:29
3 Audivi vocem, motet for 4 voices, P. 90 3:42
4 Candidi facti sunt Nazarei, motet for 5 voices, P. 186 4:55
5 Dum transisset Sabbatum, motet for 5 voices, P. 257 8:07
6 Honor, virtus et potestas, motet for 5 voices, P. 237 6:17
7 Hodie nobis caelorum Rex, motet for 4 voices, P. 92 3:25
8 Loquebantur variis linguis, motet for 7 voices, P. 272 5:00
9 In pace in idipsum, motet for 4 voices, P. 94 5:30
10 Spem in Alium (also set as "Sing and glorify"), motet for 40 voices, P. 299 10:20
CD 2
1 Gaude gloriosa Dei mater, motet (antiphon) for 6 voices, P. 123 18:20
2 Te lucis ante terminum (Procul recedant somnia) (I), motet for 5 voices, P. 214 1:52
3 Miserere nostri, motet for 7 voices, P. 207 1:45
4 Salvator mundi (I) (also set as "Arise O Lord" and "With all our hearts"), motet for 5 voices, P. 216 2:39
5 Lamentations (of Jeremiah), 1st lesson for 5 voices, P. 102 8:46
6 Salvator mundi (II) (also set as "When Jesus went"), motet for 5 voices, P. 219 2:33
7 O sacrum convivium (also set as "I call and cry to thee" and "O sacred and holy banquet"), motet for 5 voices, P. 210 3:55
8 Suscipe quaeso, motet for 7 voices, P. 222 8:37
9 O nata lux de lumine, motet (hymn) for 5 voices, P. 209 1:45
10 In jejunio et fletu, motet for 5 voices, P. 198 4:10
11 Lamentations (of Jeremiah), 2nd lesson for 5 voices, P. 110 13:03
Исполнители:
Taverner Consort & Choir
Conductor: Andrew Parrott

Лог создания рипа

Лог создания рипа CD1

Exact Audio Copy V1.0 beta 3 from 29. August 2011
EAC extraction logfile from 4. November 2014, 21:11
Andrew Parrott and The Taverner Consort & Choir / Latin Church Music I
Used drive : TSSTcorp CDDVDW Adapter: 0 ID: 0
Read mode : Secure
Utilize accurate stream : Yes
Defeat audio cache : Yes
Make use of C2 pointers : No
Read offset correction : 6
Overread into Lead-In and Lead-Out : No
Fill up missing offset samples with silence : Yes
Delete leading and trailing silent blocks : No
Null samples used in CRC calculations : Yes
Used interface : Installed external ASPI interface
Used output format : User Defined Encoder
Selected bitrate : 768 kBit/s
Quality : High
Add ID3 tag : No
Command line compressor : C:\Program Files (x86)\Exact Audio Copy\FLAC\FLAC.EXE
Additional command line options : -6 -V -T "ARTIST=%artist%" -T "TITLE=%title%" -T "ALBUM=%albumtitle%" -T "DATE=%year%" -T "TRACKNUMBER=%tracknr%" -T "GENRE=%genre%" -T "COMMENT=%comment%" -T "BAND=%albuminterpret%" -T "ALBUMARTIST=%albuminterpret%" -T "COMPOSER=%composer%" %haslyrics%--tag-from-file=LYRICS="%lyricsfile%"%haslyrics% -T "DISCNUMBER=%cdnumber%" -T "TOTALDISCS=%totalcds%" -T "TOTALTRACKS=%numtracks%" %hascover%--picture="%coverfile%"%hascover% %source% -o %dest%
TOC of the extracted CD
Track | Start | Length | Start sector | End sector
---------------------------------------------------------
1 | 0:00.00 | 9:20.22 | 0 | 42021
2 | 9:20.22 | 5:29.65 | 42022 | 66761
3 | 14:50.12 | 3:42.68 | 66762 | 83479
4 | 18:33.05 | 4:55.52 | 83480 | 105656
5 | 23:28.57 | 8:07.20 | 105657 | 142201
6 | 31:36.02 | 6:17.00 | 142202 | 170476
7 | 37:53.02 | 3:25.28 | 170477 | 185879
8 | 41:18.30 | 5:00.42 | 185880 | 208421
9 | 46:18.72 | 5:30.18 | 208422 | 233189
10 | 51:49.15 | 10:20.55 | 233190 | 279744
Range status and errors
Selected range
Filename C:\RIP\Tallis - Latin Church Music (Parrott) CD1.wav
Peak level 99.2 %
Extraction speed 3.0 X
Range quality 100.0 %
Test CRC 03C374A1
Copy CRC 03C374A1
Copy OK
No errors occurred
AccurateRip summary
Track 1 accurately ripped (confidence 2) [984BA67E] (AR v2)
Track 2 accurately ripped (confidence 2) [C9E9ACC2] (AR v2)
Track 3 accurately ripped (confidence 2) [6EC50BE6] (AR v2)
Track 4 accurately ripped (confidence 2) [9F034845] (AR v2)
Track 5 accurately ripped (confidence 2) [CB84B3A6] (AR v2)
Track 6 accurately ripped (confidence 2) [43254DCC] (AR v2)
Track 7 accurately ripped (confidence 2) [702B649A] (AR v2)
Track 8 accurately ripped (confidence 2) [3FFD1EC7] (AR v2)
Track 9 accurately ripped (confidence 2) [1941CF70] (AR v2)
Track 10 accurately ripped (confidence 2) [3003A9BA] (AR v2)
All tracks accurately ripped
End of status report
==== Log checksum 5B6AE1BA306B5B50ECF107AC243B284A60764EA5057F52FE716B573B8A5A4A81 ====

Лог создания рипа CD2

Exact Audio Copy V1.0 beta 3 from 29. August 2011
EAC extraction logfile from 4. November 2014, 22:46
Andrew Parrott and The Taverner Consort & Choir / Latin Church Music II
Used drive : TSSTcorp CDDVDW Adapter: 0 ID: 0
Read mode : Secure
Utilize accurate stream : Yes
Defeat audio cache : Yes
Make use of C2 pointers : No
Read offset correction : 6
Overread into Lead-In and Lead-Out : No
Fill up missing offset samples with silence : Yes
Delete leading and trailing silent blocks : No
Null samples used in CRC calculations : Yes
Used interface : Installed external ASPI interface
Used output format : User Defined Encoder
Selected bitrate : 768 kBit/s
Quality : High
Add ID3 tag : No
Command line compressor : C:\Program Files (x86)\Exact Audio Copy\FLAC\FLAC.EXE
Additional command line options : -6 -V -T "ARTIST=%artist%" -T "TITLE=%title%" -T "ALBUM=%albumtitle%" -T "DATE=%year%" -T "TRACKNUMBER=%tracknr%" -T "GENRE=%genre%" -T "COMMENT=%comment%" -T "BAND=%albuminterpret%" -T "ALBUMARTIST=%albuminterpret%" -T "COMPOSER=%composer%" %haslyrics%--tag-from-file=LYRICS="%lyricsfile%"%haslyrics% -T "DISCNUMBER=%cdnumber%" -T "TOTALDISCS=%totalcds%" -T "TOTALTRACKS=%numtracks%" %hascover%--picture="%coverfile%"%hascover% %source% -o %dest%
TOC of the extracted CD
Track | Start | Length | Start sector | End sector
---------------------------------------------------------
1 | 0:00.00 | 18:08.40 | 0 | 81639
2 | 18:08.40 | 1:52.40 | 81640 | 90079
3 | 20:01.05 | 1:45.23 | 90080 | 97977
4 | 21:46.28 | 2:39.50 | 97978 | 109952
5 | 24:26.03 | 8:46.45 | 109953 | 149447
6 | 33:12.48 | 2:33.10 | 149448 | 160932
7 | 35:45.58 | 3:55.22 | 160933 | 178579
8 | 39:41.05 | 8:37.18 | 178580 | 217372
9 | 48:18.23 | 1:45.00 | 217373 | 225247
10 | 50:03.23 | 4:10.37 | 225248 | 244034
11 | 54:13.60 | 13:03.38 | 244035 | 302797
Range status and errors
Selected range
Filename C:\RIP\Tallis - Latin Church Music (Parrott) CD2.wav
Peak level 95.1 %
Extraction speed 3.0 X
Range quality 100.0 %
Test CRC 67EDD7F4
Copy CRC 67EDD7F4
Copy OK
No errors occurred
AccurateRip summary
Track 1 accurately ripped (confidence 2) [08BF4C7F] (AR v2)
Track 2 accurately ripped (confidence 2) [9E0EDE09] (AR v2)
Track 3 accurately ripped (confidence 2) [B649E99C] (AR v2)
Track 4 accurately ripped (confidence 2) [17410D1A] (AR v2)
Track 5 accurately ripped (confidence 2) [7DAAC7CC] (AR v2)
Track 6 accurately ripped (confidence 2) [15CCFCF9] (AR v2)
Track 7 accurately ripped (confidence 2) [6F2FD526] (AR v2)
Track 8 accurately ripped (confidence 2) [F02718E7] (AR v2)
Track 9 accurately ripped (confidence 2) [3B2D66EC] (AR v2)
Track 10 accurately ripped (confidence 2) [2D171874] (AR v2)
Track 11 accurately ripped (confidence 2) [84B85C14] (AR v2)
All tracks accurately ripped
End of status report
==== Log checksum 219FD24D2D5BEACD3E6F40AA1D2AC114F6D3163F89652A618FB3878E3D105607 ====
[teatrix.ru].t7898.torrent 
Торрент: Зарегистрирован [ 2015-10-14 02:42 ] · 361CEFB598948CA18165953018E8F5211CF77E5D

Скачать .torrent

Скачать

12 KB

Статус: проверено
Скачан: 0 раз
Размер: 551 MB
terms.php



Быстрый ответ

Имя:

      
Для отправки сообщений необходимо включить JavaScript
Показать сообщения:    

Текущее время: 09-Дек 22:24

Часовой пояс: UTC + 3


Вы можете начинать темы
Вы можете отвечать на сообщения
Вы не можете редактировать свои сообщения
Вы не можете удалять свои сообщения
Вы не можете голосовать в опросах
Вы не можете прикреплять файлы к сообщениям
Вы можете скачивать файлы