(Sacred) Д.С.Бортнянский - Духовные хоровые произведения / D.Bortnyansky - Sacred Choral Works (Хор Государственной Академической Капеллы Санкт-Петербурга /Glinka Choir of St. Petersburg, Chernoushenko/Чернушенко) - 1994, FLAC (image+.cue) lossless


Статистика раздачи [Обновить пиров]
Размер:  276 MB   |    Зарегистрирован:  1 год 1 месяц   |    Скачан:  0 раз

Полного источника не было: Никогда

 
   
 
 
 

[Цитировать]

Д.С.Бортнянский - Духовные хоровые произведения
D.Bortnyansky - Sacred Choral Works
Жанр: Sacred
Страна-производитель диска: Germany
Год издания диска: 1994
Издатель (лейбл): Teldec
Номер по каталогу: 4509 93856-2
Дата записи: 1993
Аудиокодек: FLAC
Тип рипа: image+.cue
Битрейт аудио: lossless
Продолжительность: 1:10:27
Источник: скачано с odeonmusic
Наличие сканов в содержимом раздачи: да
Треклист:
01. Sacred Concerto No. 4 (Make a joyful noise unto God all ye lands / Воскликните Господеви вся земля) [07:39]
02. Cherubim Hymn No. 7 in D major (Kheruvimskaia pesn / Херувимская песнь) [05:27]
03. Choral Concerto No. 34 (Let God arise, let his enemies be scattered / Да воскреснет Бог) [07:10]
04. Choral Concerto No. 32, (Tell me, O Lord, my end / Скажи ми, Господи, кончину мою) [12:26]
05. Sacred Concerto No. 6 (Glory to God in the highest / Слава во вышних Богу) [05:39]
06. Sacred Concerto No. 27 (I cried to the Lord with my voice / Гласом моим ко Господу воззвах) [15:17]
07. Concerto No.15 (Come, O ye people, let us sing / Приидите, воспоим, людие) [06:51]
08. Concerto for double chorus (We praise the, O God / Тебе Бога хвалим) [09:55]
Исполнители:
Хор Государственной Академической Капеллы Санкт-Петербурга (Glinka State Choir of St. Petersburg)
Владислав Чернушенко - дирижер (Vladislav Chernoushenko - conductor)

Лог создания рипа

Exact Audio Copy V1.0 beta 3 from 29. August 2011
EAC extraction logfile from 8. July 2013, 8:47
Vladislav Chernoushenko / Bortnyansky - Sacred Choral Works - Vladislav Chernoushenko
Used drive : TSSTcorpCDDVDW SH-222BB Adapter: 2 ID: 1
Read mode : SecureUtilize accurate stream : YesDefeat audio cache : YesMake use of C2 pointers : No
Read offset correction : 6Overread into Lead-In and Lead-Out : NoFill up missing offset samples with silence : YesDelete leading and trailing silent blocks : NoNull samples used in CRC calculations : YesUsed interface : Native Win32 interface for Win NT & 2000
Used output format : User Defined EncoderSelected bitrate : 1024 kBit/sQuality : HighAdd ID3 tag : NoCommand line compressor : C:\Program Files\Exact Audio Copy\Flac\flac.exeAdditional command line options : -8 -V -T "TITLE=%title%" -T "ARTIST=%artist%" -T "ALBUMARTIST=%albumartist%" -T "ALBUM=%albumtitle%" -T "DATE=%year%" -T "TRACKNUMBER=%tracknr%" -T "TRACKTOTAL=%numtracks%" -T "GENRE=%genre%" -T "COMMENT=%comment%" -T "PERFORMER=%albuminterpret%" -T "COMPOSER=%composer%" %source% -o %dest%
TOC of the extracted CD
Track | Start | Length | Start sector | End sector --------------------------------------------------------- 1 | 0:00.00 | 7:39.30 | 0 | 34454 2 | 7:39.30 | 5:27.55 | 34455 | 59034 3 | 13:07.10 | 7:10.60 | 59035 | 91344 4 | 20:17.70 | 12:26.37 | 91345 | 147331 5 | 32:44.32 | 5:39.43 | 147332 | 172799 6 | 38:24.00 | 15:17.32 | 172800 | 241606 7 | 53:41.32 | 6:51.23 | 241607 | 272454 8 | 60:32.55 | 9:55.10 | 272455 | 317089
Range status and errors
Selected range
Filename G:\Ripped general\[2260] Bortnyansky – Sacred Choral Works – Vladislav Chernoushenko\Bortnyansky - Sacred Choral Works - Vladislav Chernoushenko.wav
Peak level 98.8 % Extraction speed 8.0 X Range quality 100.0 % Test CRC 5C1FFDF6 Copy CRC 5C1FFDF6 Copy OK
No errors occurred
AccurateRip summary
Track 1 not present in databaseTrack 2 not present in databaseTrack 3 not present in databaseTrack 4 not present in databaseTrack 5 not present in databaseTrack 6 not present in databaseTrack 7 not present in databaseTrack 8 not present in database
None of the tracks are present in the AccurateRip database
End of status report

Лог проверки качества

AUDIOCHECKER v2.0 beta (build 457) - by Dester - opdester@freemail.hu~~~~~~~~~~~~~~~~~~~~~~~~~~~~~~~~~~-=== DO NOT EDIT THIS FILE! ===-
Path: ...\Bortnyansky - Sacred Choral Works (Chernoushenko)
1 -=- Bortnyansky - Sacred Choral Works - Vladislav Chernoushenko.flac -=- CDDA (87%)
175221412
[teatrix.ru].t7899.torrent 
Торрент: Зарегистрирован [ 2015-10-14 02:42 ] · C96F40A00608C16DDC479C72078A9BC786781471

Скачать .torrent

Скачать

13 KB

Статус: проверено
Скачан: 0 раз
Размер: 276 MB
terms.php



Быстрый ответ

Имя:

      
Для отправки сообщений необходимо включить JavaScript
Показать сообщения:    

Текущее время: 05-Дек 13:33

Часовой пояс: UTC + 3


Вы можете начинать темы
Вы можете отвечать на сообщения
Вы не можете редактировать свои сообщения
Вы не можете удалять свои сообщения
Вы не можете голосовать в опросах
Вы не можете прикреплять файлы к сообщениям
Вы можете скачивать файлы