(Classical) Bach - Motets BWV 225-231, Cantatas BWV 50 & 118 (John Eliot Gardiner, Monteverdi Choir, English Baroque Soloists) - 1982, FLAC (image+.cue) lossless


Статистика раздачи [Обновить пиров]
Размер:  432 MB   |    Зарегистрирован:  1 год 1 месяц   |    Скачан:  0 раз

Полного источника не было: Никогда

 
   
 
 
 

[Цитировать]

Bach - Motets BWV 225-231, Cantatas BWV 50 & 118 (John Eliot Gardiner)
Жанр: Classical
Год издания диска: 1982
Издатель (лейбл): Erato
Номер по каталогу: 2292-45979-2
Дата записи:
Аудиокодек: FLAC
Тип рипа: image+.cue
Битрейт аудио: lossless
Продолжительность: 01:06:31
Источник: собственный рип
Наличие сканов в содержимом раздачи: да
Исполнители:
Monteverdi Choir
English Baroque Soloists
Condictor - John Eliot Gardiner
Треклист:
CD1
Motet:
01. Komm, Jesu, komm (BWV 226)
Cantata:
02. O Jesu Christ, meins Lebens Licht (BWV 118)
Motet:
03. Der Geist hilft unser Schwachheit auf (BWV 226)
04. Lobet den Herrn, alle Heiden (BWV 230)
05. Sei Lob und Preis mit Ehren (BWV 231)
06. Der Gerechte kommt um
07. Furchte dich nicht (BWV 228)
CD2
Motet:
01. Jesu, meine Freude (BWV 227)
02. Singet dem Herrn ein neues Lied (BWV 225)
Cantata:
03. Nun ist das Heil und die Kraft (BWV 50)

LOG EAC CD1

Exact Audio Copy V1.0 beta 3 from 29. August 2011
EAC extraction logfile from 22. October 2014, 16:21
John Eliot Gardiner / Bach - Motets BWV 225 & 227, Cantata BWV 50
Used drive : PIONEER DVD-RW DVR-218L Adapter: 0 ID: 0
Read mode : SecureUtilize accurate stream : YesDefeat audio cache : YesMake use of C2 pointers : No
Read offset correction : 6Overread into Lead-In and Lead-Out : NoFill up missing offset samples with silence : YesDelete leading and trailing silent blocks : NoNull samples used in CRC calculations : YesUsed interface : Native Win32 interface for Win NT & 2000
Used output format : User Defined EncoderSelected bitrate : 128 kBit/sQuality : HighAdd ID3 tag : NoCommand line compressor : C:\Program Files (x86)\Exact Audio Copy\Flac\flac.exeAdditional command line options : -V -8 -T "Date=%year%" -T "Genre=%genre%" %source%
TOC of the extracted CD
Track | Start | Length | Start sector | End sector---------------------------------------------------------1 | 0:00.00 | 22:17.15 | 0 | 1002892 | 22:17.15 | 19:42.47 | 100290 | 1889863 | 41:59.62 | 3:31.38 | 188987 | 204849
Range status and errors
Selected range
Filename C:\Program Files (x86)\Exact Audio Copy\Flac\Bach - Motets BWV 225 & 227, Cantata BWV 50.wav
Peak level 100.0 %Extraction speed 1.7 XRange quality 99.9 %Test CRC 471110EDCopy CRC 471110EDCopy OK
No errors occurred
AccurateRip summary
Track 1 cannot be verified as accurate (confidence 9) [8B5987AE], AccurateRip returned [391D921C] (AR v2)Track 2 cannot be verified as accurate (confidence 9) [75D3100F], AccurateRip returned [C454AD3B] (AR v2)Track 3 cannot be verified as accurate (confidence 9) [E221F1B3], AccurateRip returned [0C9AC5E4] (AR v2)
No tracks could be verified as accurateYou may have a different pressing from the one(s) in the database
End of status report
---- CUETools DB Plugin V2.1.3
[CTDB TOCID: ZfHcg4FPgtRXW55Tw7_dCTtd1Hs-] found, Submit result: ZfHcg4FPgtRXW55Tw7_dCTtd1Hs- has been confirmed[a1949c69] (13/14) Accurately ripped[e7f9e83c] (01/14) No match
==== Log checksum FCFA75FCDC38F1056BD0B116E97B4A7B75059216A49727951142975BF6D6A470 ====

LOG EAC CD2

Exact Audio Copy V1.0 beta 3 from 29. August 2011
EAC extraction logfile from 22. October 2014, 15:22
John Eliot Gardiner / Bach - Motets BWV 226, 228-231, Cantata BWV 118
Used drive : PIONEER DVD-RW DVR-218L Adapter: 0 ID: 0
Read mode : SecureUtilize accurate stream : YesDefeat audio cache : YesMake use of C2 pointers : No
Read offset correction : 6Overread into Lead-In and Lead-Out : NoFill up missing offset samples with silence : YesDelete leading and trailing silent blocks : NoNull samples used in CRC calculations : YesUsed interface : Native Win32 interface for Win NT & 2000
Used output format : User Defined EncoderSelected bitrate : 128 kBit/sQuality : HighAdd ID3 tag : NoCommand line compressor : C:\Program Files (x86)\Exact Audio Copy\Flac\flac.exeAdditional command line options : -V -8 -T "Date=%year%" -T "Genre=%genre%" %source%
TOC of the extracted CD
Track | Start | Length | Start sector | End sector---------------------------------------------------------1 | 0:00.00 | 9:47.12 | 0 | 440362 | 9:47.12 | 10:13.65 | 44037 | 900763 | 20:01.02 | 8:04.03 | 90077 | 1263794 | 28:05.05 | 6:47.15 | 126380 | 1569195 | 34:52.20 | 4:29.30 | 156920 | 1771246 | 39:21.50 | 7:09.30 | 177125 | 2093297 | 46:31.05 | 9:26.45 | 209330 | 251824
Range status and errors
Selected range
Filename C:\Program Files (x86)\Exact Audio Copy\Flac\Bach - Motets BWV 226, 228-231, Cantata BWV 118.wav
Peak level 99.3 %Extraction speed 1.8 XRange quality 100.0 %Test CRC EB03F7CCCopy CRC EB03F7CCCopy OK
No errors occurred
AccurateRip summary
Track 1 accurately ripped (confidence 2) [EF0CF3D1] (AR v2)Track 2 accurately ripped (confidence 2) [8663CE64] (AR v2)Track 3 accurately ripped (confidence 2) [DC414B49] (AR v2)Track 4 accurately ripped (confidence 2) [300AD668] (AR v2)Track 5 accurately ripped (confidence 2) [91334003] (AR v2)Track 6 accurately ripped (confidence 2) [BB1E83AC] (AR v2)Track 7 accurately ripped (confidence 2) [07B5C94D] (AR v2)
All tracks accurately ripped
End of status report
---- CUETools DB Plugin V2.1.3
[CTDB TOCID: CnQBpguoVnUc3LhHeFAqUZ864DQ-] found, Submit result: CnQBpguoVnUc3LhHeFAqUZ864DQ- has been confirmed[ea939c17] (12/13) Accurately ripped[13e3d1a6] (01/13) No match
==== Log checksum 5CA34186B2C2A1C9A288B181F76802E130593D117A0497C01D301C497EE71847 ====
[teatrix.ru].t7900.torrent 
Торрент: Зарегистрирован [ 2015-10-14 02:42 ] · 3C0B153024CFDE3A4DE25C766971CCB6C1C8DE5B

Скачать .torrent

Скачать

18 KB

Статус: проверено
Скачан: 0 раз
Размер: 432 MB
terms.php



Быстрый ответ

Имя:

      
Для отправки сообщений необходимо включить JavaScript
Показать сообщения:    

Текущее время: 05-Дек 03:31

Часовой пояс: UTC + 3


Вы можете начинать темы
Вы можете отвечать на сообщения
Вы не можете редактировать свои сообщения
Вы не можете удалять свои сообщения
Вы не можете голосовать в опросах
Вы не можете прикреплять файлы к сообщениям
Вы можете скачивать файлы