(Baroque sacred vocal) Antonio Vivaldi - Gloria, Alessandro Scarlatti (Алессандро Скарлатти) - Dixit Dominus (Nancy Argenta, The English Concert, Trevor Pinnock) - 1988, FLAC (tracks+.cue) lossless


Статистика раздачи [Обновить пиров]
Размер:  256 MB   |    Зарегистрирован:  1 год 1 месяц   |    Скачан:  0 раз

Полного источника не было: Никогда

 
   
 
 
 

[Цитировать]

Antonio Vivaldi - Gloria, Alessandro Scarlatti (Алессандро Скарлатти) - Dixit Dominus
Жанр: Baroque sacred vocal
Страна-производитель диска: Made in West Germany
Год издания диска: 1988
Издатель (лейбл): Polydor International GmbH, Hamburg
Номер по каталогу: 423 386-2
Дата записи: 1988
Аудиокодек: FLAC
Тип рипа: tracks+.cue
Битрейт аудио: lossless
Продолжительность: 52'32
Источник: релизер
сайт-источник/ник/другое: Duckjammy
Наличие сканов в содержимом раздачи: да
Треклист:

скрытый текст

Vivaldi - Gloria
1. Gloria in excelsis Deo
2. Et in terra pax hominibus
3. Laudamus te
4. Gratias agimus tibi
5. Propter magnam gloriam tuam
6. Domine Deus, Rex caelestis
7. Domine Fili unigenite
8. Dominie Deus, Agnus Dei
9. Qui tollis peccata mundi
10. Qui sedes ad dexteram Patris
11. Quoniam tu solus sancus
12. Cum Sancto Spiritu
Alessandro Scarlatti - Dixit Dominus
13. Dixit Dominus
14. Virgam virtutis
15. Teccum principium
16. Juravit Dominus
17. Dominus a dextris tuis
18. Judicabit in nationibus
19. De torrente in via bibet
20. Gloria Patri
Исполнители:

скрытый текст

Antonio Vivaldi (1678-1741)
Gloria
Alessandro Scarlatti (1660-1725)
Dixit Dominus
Nancy Argenta, soprano
Ingrid Attrot, soprano
Ashley Stafford, alto
Catherine Denley, contralto/Alt
Stephen Varcoe, bass
The English Concert
Trevor Pinnock - conductor

Лог создания рипа

Exact Audio Copy V1.0 beta 3 from 29. August 2011
EAC extraction logfile from 27. September 2014, 22:43
Trevor Pinnock / Vivaldi Gloria, Scarlatti Dixit Dominus
Used drive : TSSTcorpCDDVDW SE-208DB Adapter: 1 ID: 0
Read mode : SecureUtilize accurate stream : YesDefeat audio cache : YesMake use of C2 pointers : No
Read offset correction : 6Overread into Lead-In and Lead-Out : NoFill up missing offset samples with silence : YesDelete leading and trailing silent blocks : NoNull samples used in CRC calculations : YesUsed interface : Native Win32 interface for Win NT & 2000Gap handling : Appended to previous track
Used output format : User Defined EncoderSelected bitrate : 1024 kBit/sQuality : HighAdd ID3 tag : NoCommand line compressor : C:\Program Files (x86)\Exact Audio Copy\FLAC\FLAC.EXEAdditional command line options : -8 -V -T "ARTIST=%artist%" -T "TITLE=%title%" -T "ALBUM=%albumtitle%" -T "DATE=%year%" -T "TRACKNUMBER=%tracknr%" -T "GENRE=%genre%" -T "PERFORMER=%albuminterpret%" -T "COMPOSER=%composer%" %haslyrics%--tag-from-file=LYRICS="%lyricsfile%"%haslyrics% -T "ALBUMARTIST=%albumartist%" -T "DISCNUMBER=%cdnumber%" -T "TOTALDISCS=%totalcds%" -T "TOTALTRACKS=%numduckjammytracks%" -T "COMMENT=%comment%" %source% -o %dest%
TOC of the extracted CD
Track | Start | Length | Start sector | End sector --------------------------------------------------------- 1 | 0:00.33 | 2:25.60 | 33 | 10967 2 | 2:26.18 | 4:54.07 | 10968 | 33024 3 | 7:20.25 | 2:15.08 | 33025 | 43157 4 | 9:35.33 | 0:28.30 | 43158 | 45287 5 | 10:03.63 | 0:52.20 | 45288 | 49207 6 | 10:56.08 | 3:43.50 | 49208 | 65982 7 | 14:39.58 | 2:19.00 | 65983 | 76407 8 | 16:58.58 | 5:03.00 | 76408 | 99132 9 | 22:01.58 | 1:46.25 | 99133 | 107107 10 | 23:48.08 | 2:46.25 | 107108 | 119582 11 | 26:34.33 | 0:47.05 | 119583 | 123112 12 | 27:21.38 | 2:53.15 | 123113 | 136102 13 | 30:14.53 | 2:36.05 | 136103 | 147807 14 | 32:50.58 | 2:33.37 | 147808 | 159319 15 | 35:24.20 | 2:54.38 | 159320 | 172407 16 | 38:18.58 | 3:14.50 | 172408 | 187007 17 | 41:33.33 | 2:13.25 | 187008 | 197007 18 | 43:46.58 | 1:57.25 | 197008 | 205807 19 | 45:44.08 | 2:50.00 | 205808 | 218557 20 | 48:34.08 | 3:58.12 | 218558 | 236419
Track 1
Filename C:\E\01 - Gloria (RV 589) - Gloria in excelsis Deo.wav
Pre-gap length 0:00:02.44
Peak level 82.0 % Extraction speed 0.9 X Track quality 100.0 % Test CRC 7EBE3220 Copy CRC 7EBE3220 Accurately ripped (confidence 25) [1F888501] (AR v2) Copy OK
Track 2
Filename C:\E\02 - Gloria (RV 589) - Et in terra pax hominibus.wav
Pre-gap length 0:00:02.30
Peak level 72.6 % Extraction speed 1.0 X Track quality 100.0 % Test CRC 31CBE148 Copy CRC 31CBE148 Accurately ripped (confidence 25) [95E85834] (AR v2) Copy OK
Track 3
Filename C:\E\03 - Gloria (RV 589) - Laudamus te.wav
Pre-gap length 0:00:02.06
Peak level 64.1 % Extraction speed 0.8 X Track quality 99.9 % Test CRC DB0C072C Copy CRC DB0C072C Accurately ripped (confidence 24) [F549E4FC] (AR v2) Copy OK
Track 4
Filename C:\E\04 - Gloria (RV 589) - Gratias agimus tibi.wav
Pre-gap length 0:00:00.66
Peak level 66.4 % Extraction speed 0.5 X Track quality 100.0 % Test CRC 2835363A Copy CRC 2835363A Accurately ripped (confidence 25) [B0F322FB] (AR v2) Copy OK
Track 5
Filename C:\E\05 - Gloria (RV 589) - Propter magnam gloriam tuam.wav
Peak level 68.4 % Extraction speed 0.7 X Track quality 100.0 % Test CRC D2330F36 Copy CRC D2330F36 Accurately ripped (confidence 25) [B4348FF8] (AR v2) Copy OK
Track 6
Filename C:\E\06 - Gloria (RV 589) - Domine Deus, Rex caelestis.wav
Pre-gap length 0:00:02.33
Peak level 29.8 % Extraction speed 1.2 X Track quality 100.0 % Test CRC F7175A08 Copy CRC F7175A08 Accurately ripped (confidence 23) [AC07CAE5] (AR v2) Copy OK
Track 7
Filename C:\E\07 - Gloria (RV 589) - Domine Fili unigenite.wav
Pre-gap length 0:00:00.50
Peak level 62.9 % Extraction speed 1.1 X Track quality 100.0 % Test CRC 2FF7DD54 Copy CRC 2FF7DD54 Accurately ripped (confidence 25) [97BBFAB7] (AR v2) Copy OK
Track 8
Filename C:\E\08 - Gloria (RV 589) - Domine Deus, Agnus Dei.wav
Pre-gap length 0:00:01.00
Peak level 45.4 % Extraction speed 1.4 X Track quality 100.0 % Test CRC 65723F19 Copy CRC 65723F19 Accurately ripped (confidence 24) [892218B7] (AR v2) Copy OK
Track 9
Filename C:\E\09 - Gloria (RV 589) - Qui tollis peccata mundi.wav
Pre-gap length 0:00:01.53
Peak level 39.0 % Extraction speed 1.2 X Track quality 100.0 % Test CRC 1CF40432 Copy CRC 1CF40432 Accurately ripped (confidence 23) [624536B4] (AR v2) Copy OK
Track 10
Filename C:\E\10 - Gloria (RV 589) - Qui sedes ad dexteram Patris.wav
Pre-gap length 0:00:01.66
Peak level 37.6 % Extraction speed 1.1 X Track quality 99.9 % Test CRC A0CFD441 Copy CRC A0CFD441 Accurately ripped (confidence 24) [093D5B84] (AR v2) Copy OK
Track 11
Filename C:\E\11 - Gloria (RV 589) - Quonuam tu solus sanctus.wav
Pre-gap length 0:00:01.00
Peak level 75.0 % Extraction speed 0.8 X Track quality 100.0 % Test CRC 2C203FF8 Copy CRC 2C203FF8 Accurately ripped (confidence 25) [6E17AD25] (AR v2) Copy OK
Track 12
Filename C:\E\12 - Gloria (RV 589) - Cum Sancto Spritu.wav
Peak level 76.2 % Extraction speed 1.3 X Track quality 100.0 % Test CRC 321BC6D5 Copy CRC 321BC6D5 Accurately ripped (confidence 24) [31C894A1] (AR v2) Copy OK
Track 13
Filename C:\E\13 - Dixit Dominus - Dixit Dominus.wav
Pre-gap length 0:00:05.60
Peak level 91.1 % Extraction speed 1.4 X Track quality 100.0 % Test CRC 83996581 Copy CRC 83996581 Accurately ripped (confidence 23) [9F3791EA] (AR v2) Copy OK
Track 14
Filename C:\E\14 - Dixit Dominus - Vigram virtutis.wav
Pre-gap length 0:00:01.17
Peak level 91.2 % Extraction speed 1.4 X Track quality 100.0 % Test CRC 46FF4E53 Copy CRC 46FF4E53 Accurately ripped (confidence 24) [6EAF1824] (AR v2) Copy OK
Track 15
Filename C:\E\15 - Dixit Dominus - Tecum principium.wav
Peak level 46.4 % Extraction speed 1.5 X Track quality 100.0 % Test CRC 4A01C33C Copy CRC 4A01C33C Accurately ripped (confidence 24) [5FFD9CAE] (AR v2) Copy OK
Track 16
Filename C:\E\16 - Dixit Dominus - Juravit Dominus.wav
Pre-gap length 0:00:01.17
Peak level 91.1 % Extraction speed 1.5 X Track quality 100.0 % Test CRC 7B474B17 Copy CRC 7B474B17 Accurately ripped (confidence 24) [4BBA4B43] (AR v2) Copy OK
Track 17
Filename C:\E\17 - Dixit Dominus - Dominus a dextris tuis.wav
Pre-gap length 0:00:00.33
Peak level 78.6 % Extraction speed 1.4 X Track quality 100.0 % Test CRC C8A9A504 Copy CRC C8A9A504 Accurately ripped (confidence 24) [750EF56A] (AR v2) Copy OK
Track 18
Filename C:\E\18 - Dixit Dominus - Judicabit in nationibus.wav
Peak level 79.1 % Extraction speed 1.4 X Track quality 100.0 % Test CRC E21F30F7 Copy CRC E21F30F7 Accurately ripped (confidence 24) [37248698] (AR v2) Copy OK
Track 19
Filename C:\E\19 - Dixit Dominus - De torrente in via bibet.wav
Pre-gap length 0:00:00.50
Peak level 62.4 % Extraction speed 1.3 X Track quality 99.9 % Test CRC 7733F69D Copy CRC 7733F69D Accurately ripped (confidence 24) [B328CB2C] (AR v2) Copy OK
Track 20
Filename C:\E\20 - Dixit Dominus - Gloria Patri.wav
Pre-gap length 0:00:00.06
Peak level 88.2 % Extraction speed 1.7 X Track quality 100.0 % Test CRC FBDB8F7C Copy CRC FBDB8F7C Accurately ripped (confidence 24) [B8CDEB80] (AR v2) Copy OK
All tracks accurately ripped
No errors occurred
End of status report
==== Log checksum 4F07D07DBBBF1FA1236540EEBFDDC4B28F6959F4AF3863D24736095B30A86157 ====

Содержание индексной карты (.CUE)

REM GENRE ClassicalREM DATE 1988REM DISCID 110C5014REM COMMENT "ExactAudioCopy v1.0b3"CATALOG 0028942338623PERFORMER "Trevor Pinnock"TITLE "Vivaldi Gloria, Scarlatti Dixit Dominus"FILE "01 - Gloria (RV 589) - Gloria in excelsis Deo.flac" WAVE TRACK 01 AUDIO TITLE "Gloria (RV 589) - Gloria in excelsis Deo" PERFORMER "Trevor Pinnock" ISRC DEF058730200 PREGAP 00:00:33 INDEX 01 00:00:00FILE "02 - Gloria (RV 589) - Et in terra pax hominibus.flac" WAVE TRACK 02 AUDIO TITLE "Gloria (RV 589) - Et in terra pax hominibus" PERFORMER "Trevor Pinnock" ISRC DEF058730200 INDEX 00 02:23:37 INDEX 01 00:00:00FILE "03 - Gloria (RV 589) - Laudamus te.flac" WAVE TRACK 03 AUDIO TITLE "Gloria (RV 589) - Laudamus te" PERFORMER "Trevor Pinnock" ISRC DEF058730200 INDEX 00 04:52:02 INDEX 01 00:00:00FILE "04 - Gloria (RV 589) - Gratias agimus tibi.flac" WAVE TRACK 04 AUDIO TITLE "Gloria (RV 589) - Gratias agimus tibi" PERFORMER "Trevor Pinnock" ISRC DEF058730200 INDEX 00 02:14:33 INDEX 01 00:00:00FILE "05 - Gloria (RV 589) - Propter magnam gloriam tuam.flac" WAVE TRACK 05 AUDIO TITLE "Gloria (RV 589) - Propter magnam gloriam tuam" PERFORMER "Trevor Pinnock" ISRC DEF058730200 INDEX 01 00:00:00FILE "06 - Gloria (RV 589) - Domine Deus, Rex caelestis.flac" WAVE TRACK 06 AUDIO TITLE "Gloria (RV 589) - Domine Deus, Rex caelestis" PERFORMER "Trevor Pinnock" ISRC DEF058730200 INDEX 00 00:49:70 INDEX 01 00:00:00FILE "07 - Gloria (RV 589) - Domine Fili unigenite.flac" WAVE TRACK 07 AUDIO TITLE "Gloria (RV 589) - Domine Fili unigenite" PERFORMER "Trevor Pinnock" ISRC DEF058730200 INDEX 00 03:43:12 INDEX 01 00:00:00FILE "08 - Gloria (RV 589) - Domine Deus, Agnus Dei.flac" WAVE TRACK 08 AUDIO TITLE "Gloria (RV 589) - Domine Deus, Agnus Dei" PERFORMER "Trevor Pinnock" ISRC DEF058730200 INDEX 00 02:18:00 INDEX 01 00:00:00FILE "09 - Gloria (RV 589) - Qui tollis peccata mundi.flac" WAVE TRACK 09 AUDIO TITLE "Gloria (RV 589) - Qui tollis peccata mundi" PERFORMER "Trevor Pinnock" ISRC DEF058730200 INDEX 00 05:01:35 INDEX 01 00:00:00FILE "10 - Gloria (RV 589) - Qui sedes ad dexteram Patris.flac" WAVE TRACK 10 AUDIO TITLE "Gloria (RV 589) - Qui sedes ad dexteram Patris" PERFORMER "Trevor Pinnock" ISRC DEF058730200 INDEX 00 01:44:50 INDEX 01 00:00:00FILE "11 - Gloria (RV 589) - Quonuam tu solus sanctus.flac" WAVE TRACK 11 AUDIO TITLE "Gloria (RV 589) - Quonuam tu solus sanctus" PERFORMER "Trevor Pinnock" ISRC DEF058730200 INDEX 00 02:45:25 INDEX 01 00:00:00FILE "12 - Gloria (RV 589) - Cum Sancto Spritu.flac" WAVE TRACK 12 AUDIO TITLE "Gloria (RV 589) - Cum Sancto Spritu" PERFORMER "Trevor Pinnock" ISRC DEF058730200 INDEX 01 00:00:00FILE "13 - Dixit Dominus - Dixit Dominus.flac" WAVE TRACK 13 AUDIO TITLE "Dixit Dominus - Dixit Dominus" PERFORMER "Trevor Pinnock" ISRC DEF058702280 INDEX 00 02:47:45 INDEX 01 00:00:00FILE "14 - Dixit Dominus - Vigram virtutis.flac" WAVE TRACK 14 AUDIO TITLE "Dixit Dominus - Vigram virtutis" PERFORMER "Trevor Pinnock" ISRC DEF058702280 INDEX 00 02:34:67 INDEX 01 00:00:00FILE "15 - Dixit Dominus - Tecum principium.flac" WAVE TRACK 15 AUDIO TITLE "Dixit Dominus - Tecum principium" PERFORMER "Trevor Pinnock" ISRC DEF058702280 INDEX 01 00:00:00FILE "16 - Dixit Dominus - Juravit Dominus.flac" WAVE TRACK 16 AUDIO TITLE "Dixit Dominus - Juravit Dominus" PERFORMER "Trevor Pinnock" ISRC DEF058702280 INDEX 00 02:53:25 INDEX 01 00:00:00FILE "17 - Dixit Dominus - Dominus a dextris tuis.flac" WAVE TRACK 17 AUDIO TITLE "Dixit Dominus - Dominus a dextris tuis" PERFORMER "Trevor Pinnock" ISRC DEF058702280 INDEX 00 03:14:25 INDEX 01 00:00:00FILE "18 - Dixit Dominus - Judicabit in nationibus.flac" WAVE TRACK 18 AUDIO TITLE "Dixit Dominus - Judicabit in nationibus" PERFORMER "Trevor Pinnock" ISRC DEF058702280 INDEX 01 00:00:00FILE "19 - Dixit Dominus - De torrente in via bibet.flac" WAVE TRACK 19 AUDIO TITLE "Dixit Dominus - De torrente in via bibet" PERFORMER "Trevor Pinnock" ISRC DEF058702280 INDEX 00 01:56:62 INDEX 01 00:00:00FILE "20 - Dixit Dominus - Gloria Patri.flac" WAVE TRACK 20 AUDIO TITLE "Dixit Dominus - Gloria Patri" PERFORMER "Trevor Pinnock" ISRC DEF058702280 INDEX 00 02:49:70 INDEX 01 00:00:00
[teatrix.ru].t7901.torrent 
Торрент: Зарегистрирован [ 2015-10-14 02:42 ] · 803DB6691BB8DB1A3CCD6E6BF104FCEE5D14E3A2

Скачать .torrent

Скачать

14 KB

Статус: проверено
Скачан: 0 раз
Размер: 256 MB
terms.php



Быстрый ответ

Имя:

      
Для отправки сообщений необходимо включить JavaScript
Показать сообщения:    

Текущее время: 07-Дек 11:37

Часовой пояс: UTC + 3


Вы можете начинать темы
Вы можете отвечать на сообщения
Вы не можете редактировать свои сообщения
Вы не можете удалять свои сообщения
Вы не можете голосовать в опросах
Вы не можете прикреплять файлы к сообщениям
Вы можете скачивать файлы