(Choral/Sacred) Bellini - Messa, Credo & Te Deum laudamus per coro a quattro voci, soli e orchestra (Tarone, Tchernova, Park, Bianchini - Coro e Orchestra dell"Accademia Stefano Tempia, Peiretti) - 2000, APE (image+.cue) lossless


Статистика раздачи [Обновить пиров]
Размер:  309 MB   |    Зарегистрирован:  1 год 1 месяц   |    Скачан:  0 раз

Полного источника не было: Никогда

 
   
 
 
 

[Цитировать]

Vincenzo Bellini - Messa, Credo & Te Deum laudamus per coro a quattro voci, soli e orchestra
Жанр: Choral/Sacred
Страна-производитель диска: Italy
Год издания диска: 2000
Издатель (лейбл): Nuova Era
Номер по каталогу: 7375
Дата записи: 2000
Аудиокодек: APE
Тип рипа: image+.cue
Битрейт аудио: lossless
Продолжительность: 66'33
Источник: собственный рип
Наличие сканов в содержимом раздачи: да
Треклист/Исполнители:
Messa a quattro voci in la minore per soli, coro e orchestra
1. Kyrie
2. Gloria
3. Laudamus
4. Domine Deus
5. Qui Tollis
6. Qui sedes
7. Cum Sancto Spiritu
8. Credo a quattro voci
9. Te Deum laudamus per coro a quattro voci con orchestra
Monica Tarone, soprano
Galina Tchernova, mezzosoprano
Hyun-Jae Park, tenor
Alessandro Bianchini, bass
Coro e Orchestra dell"Accademia Stefano Tempia
Michele Frezza, Chorus Master
Massimo Peiretti, Conductor

Лог создания рипа

Exact Audio Copy V1.0 beta 3 from 29. August 2011
EAC extraction logfile from 12. September 2014, 12:19
Bellini / Messa a quattro voci_Credo_Te Deum, Peiretti
Used drive : TSSTcorpCDDVDW SE-208AB Adapter: 1 ID: 0
Read mode : SecureUtilize accurate stream : YesDefeat audio cache : YesMake use of C2 pointers : No
Read offset correction : 6Overread into Lead-In and Lead-Out : NoFill up missing offset samples with silence : YesDelete leading and trailing silent blocks : NoNull samples used in CRC calculations : YesUsed interface : Native Win32 interface for Win NT & 2000
Used output format : Monkey's Audio Lossless EncoderSelected bitrate : High Lossless CompressionQuality : HighAdd ID3 tag : NoCommand line compressor : C:\Program Files (x86)\Exact Audio Copy\MAC\MAC.exe
TOC of the extracted CD
Track | Start | Length | Start sector | End sector --------------------------------------------------------- 1 | 0:00.00 | 9:31.39 | 0 | 42863 2 | 9:31.39 | 6:25.63 | 42864 | 71801 3 | 15:57.27 | 8:14.11 | 71802 | 108862 4 | 24:11.38 | 9:37.57 | 108863 | 152194 5 | 33:49.20 | 5:06.28 | 152195 | 175172 6 | 38:55.48 | 8:21.58 | 175173 | 212805 7 | 47:17.31 | 5:15.61 | 212806 | 236491 8 | 52:33.17 | 6:18.10 | 236492 | 264851 9 | 58:51.27 | 7:40.08 | 264852 | 299359
Range status and errors
Selected range
Filename D:\EAC\Bellini - Messa a quattro voci_Credo_Te Deum, Peiretti.wav
Peak level 96.6 % Extraction speed 2.0 X Range quality 99.9 % Test CRC 787A5C94 Copy CRC 787A5C94 Copy OK
No errors occurred
AccurateRip summary
Track 1 accurately ripped (confidence 1) [43485A1E] (AR v1)Track 2 accurately ripped (confidence 1) [F5EC9EE0] (AR v1)Track 3 accurately ripped (confidence 1) [3D5E40F1] (AR v1)Track 4 accurately ripped (confidence 1) [ADD3F314] (AR v1)Track 5 accurately ripped (confidence 1) [3D68DFF8] (AR v1)Track 6 accurately ripped (confidence 1) [9ACBBAD0] (AR v1)Track 7 accurately ripped (confidence 1) [A6499DAD] (AR v1)Track 8 accurately ripped (confidence 1) [C559E058] (AR v1)Track 9 accurately ripped (confidence 1) [52BA69A5] (AR v1)
All tracks accurately ripped
End of status report
---- CUETools DB Plugin V2.1.3
[CTDB TOCID: bb3en7WrUKSQeECEMZX1QRyoaOY-] found, Submit result: bb3en7WrUKSQeECEMZX1QRyoaOY- has been confirmed[d6b441cb] (1/1) Accurately ripped
==== Log checksum AED0FF4D6DBF814F13B637691E8CE0D310B1B4EA8D6C0A948B1A0FFBE8041ED5 ====

Содержание индексной карты (.CUE)

REM GENRE ChorusREM DATE 2000REM DISCID 7C0F9709REM COMMENT "ExactAudioCopy v1.0b3"PERFORMER "Bellini"TITLE "Messa a quattro voci_Credo_Te Deum, Peiretti"FILE "Bellini - Messa a quattro voci_Credo_Te Deum, Peiretti.ape" WAVE TRACK 01 AUDIO TITLE "Kyrie" PERFORMER "Bellini" INDEX 01 00:00:00 TRACK 02 AUDIO TITLE "Gloria" PERFORMER "Bellini" INDEX 01 09:31:39 TRACK 03 AUDIO TITLE "Laudamus" PERFORMER "Bellini" INDEX 01 15:57:27 TRACK 04 AUDIO TITLE "Domine Deus" PERFORMER "Bellini" INDEX 01 24:11:38 TRACK 05 AUDIO TITLE "Qui Tolls" PERFORMER "Bellini" INDEX 01 33:49:20 TRACK 06 AUDIO TITLE "Qui sedes" PERFORMER "Bellini" INDEX 01 38:55:48 TRACK 07 AUDIO TITLE "Cum Sancto Spiritu" PERFORMER "Bellini" INDEX 01 47:17:31 TRACK 08 AUDIO TITLE "Credo a quattro voci" PERFORMER "Bellini" INDEX 01 52:33:17 TRACK 09 AUDIO TITLE "Te Deum laudamus" PERFORMER "Bellini" INDEX 01 58:51:27
[teatrix.ru].t7902.torrent 
Торрент: Зарегистрирован [ 2015-10-14 02:42 ] · AD0E6AB9AE289521E1C7A192F517204FE955DE53

Скачать .torrent

Скачать

13 KB

Статус: проверено
Скачан: 0 раз
Размер: 309 MB
terms.php



Быстрый ответ

Имя:

      
Для отправки сообщений необходимо включить JavaScript
Показать сообщения:    

Текущее время: 02-Дек 21:12

Часовой пояс: UTC + 3


Вы можете начинать темы
Вы можете отвечать на сообщения
Вы не можете редактировать свои сообщения
Вы не можете удалять свои сообщения
Вы не можете голосовать в опросах
Вы не можете прикреплять файлы к сообщениям
Вы можете скачивать файлы