(Baroque cantata) Alessandro Scarlatti (Алессандро Скарлатти) - Cantate e Duetti (Giampaolo Fagotto, Paolo Pandolfo, Rinaldo Alessadrini) - 1992, FLAC (image+.cue) lossless


Статистика раздачи [Обновить пиров]
Размер:  462 MB   |    Зарегистрирован:  1 год 1 месяц   |    Скачан:  1 раз

Полного источника не было: 6 месяцев 14 дней

 
   
 
 
 

[Цитировать]

Alessandro Scarlatti - Cantate e Duetti

Жанр: Baroque cantata
Страна-производитель диска: Made in France
Год издания диска: 1992
Издатель (лейбл): Tactus / MPO
Номер по каталогу: TC 661901
Дата записи: 1990
Аудиокодек: FLAC
Тип рипа: image+.cue
Битрейт аудио: lossless
Продолжительность: 67'07
Источник: релизер
сайт-источник/ник/другое: Saoshya and Meeting in Music blogspot
Наличие сканов в содержимом раздачи: да
Треклист:

скрытый текст

01. Ammore, brutto figlio de pottana 10:36
02. Sovente Amor mi chiama - Recitativo 00:57
03. Aria andante 02:08
04. Recitativo 00:29
05. Aria andante 03:10
06. Recitativo 00:25
07. Aria andante 02:45
08. Son pur care le catene - A Due 04:38
09. Recitativo alto 00:48
10. Aria alto 03:08
11. Recitativo soprano 01:01
12. Aria Soprano 03:31
13. A Due 03:20
14. Clori mia, Clori bella - Recitativo 01:14
15. Aria 05:49
16. Recitative 00:52
17. Aria 02:51
18. Dimmi crudele, e quando - A Due 04:49
19. Recitativo alto 00:47
20. Aria alto 03:47
21. Recitativo soprano 00:31
22. Aria soprano 02:05
23. A Due 06:08
Исполнители:

скрытый текст

Alessandro Scarlatti (1660-1725)
Cantate e Duetti
Cristina Miatello, soprano
Claudio Cavina, alto
Giampaolo Fagotto, tenore
Paolo Pandolfo, viola da gamba
Roberto Sensi, violone
Lodovica Scoppola, flauto
Rinaldo Alessandrini, clavicembalo
Audio CD (January 1, 1992)

Лог создания рипа

Exact Audio Copy V0.99 prebeta 4 from 23. January 2008
EAC extraction logfile from 27. February 2014, 21:17
Ensemble Concerto Italiano, Rinaldo Alessandrini / Alessandro Scarlatti - Cantate e Duetti
Used drive : SONY DVD-ROM DDU1615 Adapter: 0 ID: 0
Read mode : SecureUtilize accurate stream : YesDefeat audio cache : YesMake use of C2 pointers : No
Read offset correction : 6Overread into Lead-In and Lead-Out : NoFill up missing offset samples with silence : YesDelete leading and trailing silent blocks : NoNull samples used in CRC calculations : YesUsed interface : Native Win32 interface for Win NT & 2000
Used output format : User Defined EncoderSelected bitrate : 1024 kBit/sQuality : HighAdd ID3 tag : NoCommand line compressor : C:\Program Files\REACT\REACT.exeAdditional command line options : REACT %o %s %d "%a" "%g" "%t" "%n" "%x" "%y" "%m" "%e" "%f" "%b" %r
TOC of the extracted CD
Track | Start | Length | Start sector | End sector --------------------------------------------------------- 1 | 0:00.32 | 10:36.15 | 32 | 47746 2 | 10:36.47 | 0:57.38 | 47747 | 52059 3 | 11:34.10 | 2:08.52 | 52060 | 61711 4 | 13:42.62 | 0:29.03 | 61712 | 63889 5 | 14:11.65 | 3:10.05 | 63890 | 78144 6 | 17:21.70 | 0:25.62 | 78145 | 80081 7 | 17:47.57 | 2:45.63 | 80082 | 92519 8 | 20:33.45 | 4:38.07 | 92520 | 113376 9 | 25:11.52 | 0:48.13 | 113377 | 116989 10 | 25:59.65 | 3:08.57 | 116990 | 131146 11 | 29:08.47 | 1:01.40 | 131147 | 135761 12 | 30:10.12 | 3:31.35 | 135762 | 151621 13 | 33:41.47 | 3:20.00 | 151622 | 166621 14 | 37:01.47 | 1:14.20 | 166622 | 172191 15 | 38:15.67 | 5:49.18 | 172192 | 198384 16 | 44:05.10 | 0:52.02 | 198385 | 202286 17 | 44:57.12 | 2:51.18 | 202287 | 215129 18 | 47:48.30 | 4:49.25 | 215130 | 236829 19 | 52:37.55 | 0:47.10 | 236830 | 240364 20 | 53:24.65 | 3:47.12 | 240365 | 257401 21 | 57:12.02 | 0:31.33 | 257402 | 259759 22 | 57:43.35 | 2:05.00 | 259760 | 269134 23 | 59:48.35 | 6:08.72 | 269135 | 296806
Range status and errors
Selected range
Filename L:\Saoshya\Tactus TC661901 Alessandro Scarlatti - Cantate e Duetti (Ensemble Concerto Italiano, Rinaldo Alessandrini)\CDImage\A. Scarlatti - Cantate e Duetti - Ensemble Concerto Italiano.wav
Peak level 83.6 % Range quality 99.9 % Test CRC 8437E636 Copy CRC 8437E636 Copy OK
No errors occurred
AccurateRip summary
Track 1 cannot be verified as accurate (confidence 2) [506BAF31], AccurateRip returned [3682E4E7]Track 2 cannot be verified as accurate (confidence 2) [AC122A25], AccurateRip returned [930B5F31]Track 3 cannot be verified as accurate (confidence 2) [D0332788], AccurateRip returned [EB32E1E4]Track 4 cannot be verified as accurate (confidence 2) [B13AFCA9], AccurateRip returned [7D71D606]Track 5 cannot be verified as accurate (confidence 2) [B00047D0], AccurateRip returned [6F78E818]Track 6 cannot be verified as accurate (confidence 2) [7018684D], AccurateRip returned [79EFA0BB]Track 7 cannot be verified as accurate (confidence 2) [396E9BCD], AccurateRip returned [8CE1C5E3]Track 8 cannot be verified as accurate (confidence 2) [9F80A63E], AccurateRip returned [D0F97548]Track 9 cannot be verified as accurate (confidence 2) [5289A6D6], AccurateRip returned [B747E9AB]Track 10 cannot be verified as accurate (confidence 2) [1927C383], AccurateRip returned [32BD8D15]Track 11 cannot be verified as accurate (confidence 2) [A8B96A4D], AccurateRip returned [BA8D3C91]Track 12 cannot be verified as accurate (confidence 2) [924CD037], AccurateRip returned [C50CDCF6]Track 13 cannot be verified as accurate (confidence 2) [E2E6F811], AccurateRip returned [9214DF36]Track 14 cannot be verified as accurate (confidence 2) [B5234FA5], AccurateRip returned [20CE8628]Track 15 cannot be verified as accurate (confidence 2) [7E1EEE4C], AccurateRip returned [D2C3CBC4]Track 16 cannot be verified as accurate (confidence 2) [F14FCDB2], AccurateRip returned [DEC2FEC3]Track 17 cannot be verified as accurate (confidence 2) [36B40B61], AccurateRip returned [AF658241]Track 18 cannot be verified as accurate (confidence 2) [04216C92], AccurateRip returned [8933A76A]Track 19 cannot be verified as accurate (confidence 2) [A92331D0], AccurateRip returned [35E3856B]Track 20 cannot be verified as accurate (confidence 2) [0ECFA2FF], AccurateRip returned [242231F0]Track 21 cannot be verified as accurate (confidence 2) [E6F6C031], AccurateRip returned [0D6F2267]Track 22 cannot be verified as accurate (confidence 2) [1B857ABB], AccurateRip returned [F198AE5D]Track 23 cannot be verified as accurate (confidence 2) [0B072ECC], AccurateRip returned [BDB9B09D]
No tracks could be verified as accurateYou may have a different pressing from the one(s) in the database
End of status report
[teatrix.ru].t7903.torrent 
Торрент: Зарегистрирован [ 2015-10-14 02:42 ] · 7031FA46663126CCEED35EE99D3B4D1B64B51367

Скачать .torrent

Скачать

20 KB

Статус: проверено
Скачан: 1 раз
Размер: 462 MB
terms.php



Быстрый ответ

Имя:

      
Для отправки сообщений необходимо включить JavaScript
Показать сообщения:    

Текущее время: 09-Дек 06:53

Часовой пояс: UTC + 3


Вы можете начинать темы
Вы можете отвечать на сообщения
Вы не можете редактировать свои сообщения
Вы не можете удалять свои сообщения
Вы не можете голосовать в опросах
Вы не можете прикреплять файлы к сообщениям
Вы можете скачивать файлы