(Medieval, Choral) [CD] Benedictines Of Mary, Queen Of Apostles - Коллекция - 2012-2014, (3 CDs), FLAC (image+.cue), lossless


Статистика раздачи [Обновить пиров]
Размер:  916 MB   |    Зарегистрирован:  1 год 1 месяц   |    Скачан:  0 раз

Полного источника не было: Никогда

 
   
 
 
 

[Цитировать]

Benedictines Of Mary, Queen Of Apostles

Коллекция
Жанр: Medieval, Choral Носитель: CD
Страна-производитель диска: U.S.A./Canada Год издания: 2012-2014
Страна: U.S.A. Аудиокодек: FLAC (*.flac)
Тип рипа: image+.cue Битрейт аудио: lossless
Источник (релизер): CDs из личной коллекции Наличие сканов в содержимом раздачи: да

2012: Advent At Ephelus

Издатель (лейбл): Umgd/Decca
Номер по каталогу: B0017837-02
Продолжительность: 48:50
Треклист:
01. Come Thou Redeemer Of The Earth
02. Angelus Ad Virginem
03. Regnantem Sempiterna
04. Gabriel`s Message
05. Creator Alme Siderum
06. Hayl Mary
07. Rorate Caeli
08. Praeparate Corda Vestra
09. O Come, O come Emmanuel
10. Benedixisti Domine
11. Maria Walks Amid The Thorn
12. Alma Redemptioris Mater
13. Adjuvabit Eam
14. O Come Divine Messiah
15. Vox Clara
16. Like The Dawning

Лог создания рипа

Exact Audio Copy V1.0 beta 3 from 29. August 2011
EAC extraction logfile from 16. January 2014, 13:23
Benedictines Of Mary, Queen Of Apostles / Advent At Ephesus
Used drive : HP DVD Writer 1170d Adapter: 2 ID: 0
Read mode : SecureUtilize accurate stream : YesDefeat audio cache : YesMake use of C2 pointers : No
Read offset correction : 6Overread into Lead-In and Lead-Out : NoFill up missing offset samples with silence : YesDelete leading and trailing silent blocks : NoNull samples used in CRC calculations : YesUsed interface : Native Win32 interface for Win NT & 2000
Used output format : User Defined EncoderSelected bitrate : 1024 kBit/sQuality : HighAdd ID3 tag : NoCommand line compressor : C:\Program Files\Exact Audio Copy\FLAC\FLAC.EXEAdditional command line options : -V -8 -T "Date=%year%" -T "Genre=%genre%" -T"COMMENT=Ripped by Ungern666" -8 -V %source%
TOC of the extracted CD
Track | Start | Length | Start sector | End sector --------------------------------------------------------- 1 | 0:00.00 | 2:49.32 | 0 | 12706 2 | 2:49.32 | 3:10.64 | 12707 | 27020 3 | 6:00.21 | 2:51.73 | 27021 | 39918 4 | 8:52.19 | 2:28.21 | 39919 | 51039 5 | 11:20.40 | 3:23.12 | 51040 | 66276 6 | 14:43.52 | 3:13.12 | 66277 | 80763 7 | 17:56.64 | 4:48.11 | 80764 | 102374 8 | 22:45.00 | 2:32.36 | 102375 | 113810 9 | 25:17.36 | 4:09.21 | 113811 | 132506 10 | 29:26.57 | 1:23.74 | 132507 | 138805 11 | 30:50.56 | 3:27.05 | 138806 | 154335 12 | 34:17.61 | 1:54.54 | 154336 | 162939 13 | 36:12.40 | 3:55.16 | 162940 | 180580 14 | 40:07.56 | 3:46.30 | 180581 | 197560 15 | 43:54.11 | 1:48.50 | 197561 | 205710 16 | 45:42.61 | 3:07.27 | 205711 | 219762
Range status and errors
Selected range
Filename C:\EAC\Ungern666\Benedictines Of Mary, Queen Of Apostles - Advent At Ephesus.wav
Peak level 86.0 % Extraction speed 7.0 X Range quality 100.0 % Test CRC 62A2316C Copy CRC 62A2316C Copy OK
No errors occurred
AccurateRip summary
Track 1 not present in databaseTrack 2 not present in databaseTrack 3 not present in databaseTrack 4 not present in databaseTrack 5 not present in databaseTrack 6 not present in databaseTrack 7 not present in databaseTrack 8 not present in databaseTrack 9 not present in databaseTrack 10 not present in databaseTrack 11 not present in databaseTrack 12 not present in databaseTrack 13 not present in databaseTrack 14 not present in databaseTrack 15 not present in databaseTrack 16 not present in database
None of the tracks are present in the AccurateRip database
End of status report
---- CUETools DB Plugin V2.1.5
[CTDB TOCID: _.kZyJZEEltK8uoPazvfnxWsDxU-] database access error: Die Verbindung mit dem Remoteserver kann nicht hergestellt werden.
==== Log checksum 8BA557BCB98D9E8408AFAD3CBCAE831FBE88515E6D63EC9403CC8CC6D0E207C0 ====

2013: Angels And Saints At Ephesus

Издатель (лейбл): Decca (Universal)
Номер по каталогу: B0018437-02
Продолжительность: 43:46
Треклист:
01. O God Of Loveliness
02. Te Joseph Celebrent
03. Christe Sanctorum
04. Let All Mortal Flesh Keep Silence
05. Duo Seraphim
06. Veritas Mea
07. Jesu Dulcis Memoria
08. Lorica Of St. Patrick
09. Est Secretum
10. Virgin Wholly Marvelous
11. Laeta Quies
12. Ave Regina Caelorum
13. A Rose Unpetalled
14. Emicat Meridies
15. O Deus Ego Amo Te
16. Jesu Corona Virginum
17. Dear Angel Ever At My Side

Лог создания рипа

Exact Audio Copy V1.0 beta 3 from 29. August 2011
EAC extraction logfile from 16. January 2014, 13:45
Benedictines Of Mary, Queen Of Apostles / Angels And Saints At Ephesus
Used drive : HP DVD Writer 1170d Adapter: 2 ID: 0
Read mode : SecureUtilize accurate stream : YesDefeat audio cache : YesMake use of C2 pointers : No
Read offset correction : 6Overread into Lead-In and Lead-Out : NoFill up missing offset samples with silence : YesDelete leading and trailing silent blocks : NoNull samples used in CRC calculations : YesUsed interface : Native Win32 interface for Win NT & 2000
Used output format : User Defined EncoderSelected bitrate : 1024 kBit/sQuality : HighAdd ID3 tag : NoCommand line compressor : C:\Program Files\Exact Audio Copy\FLAC\FLAC.EXEAdditional command line options : -V -8 -T "Date=%year%" -T "Genre=%genre%" -T"COMMENT=Ripped by Ungern666" -8 -V %source%
TOC of the extracted CD
Track | Start | Length | Start sector | End sector --------------------------------------------------------- 1 | 0:00.00 | 3:02.71 | 0 | 13720 2 | 3:02.71 | 3:33.74 | 13721 | 29769 3 | 6:36.70 | 3:21.26 | 29770 | 44870 4 | 9:58.21 | 2:58.00 | 44871 | 58220 5 | 12:56.21 | 3:06.05 | 58221 | 72175 6 | 16:02.26 | 1:17.57 | 72176 | 78007 7 | 17:20.08 | 1:50.57 | 78008 | 86314 8 | 19:10.65 | 3:59.37 | 86315 | 104276 9 | 23:10.27 | 2:14.45 | 104277 | 114371 10 | 25:24.72 | 1:52.35 | 114372 | 122806 11 | 27:17.32 | 2:40.57 | 122807 | 134863 12 | 29:58.14 | 2:24.58 | 134864 | 145721 13 | 32:22.72 | 2:47.38 | 145722 | 158284 14 | 35:10.35 | 2:21.34 | 158285 | 168893 15 | 37:31.69 | 1:57.34 | 168894 | 177702 16 | 39:29.28 | 2:05.20 | 177703 | 187097 17 | 41:34.48 | 2:11.66 | 187098 | 196988
Range status and errors
Selected range
Filename C:\EAC\Ungern666\Benedictines Of Mary, Queen Of Apostles - Angels And Saints At Ephesus.wav
Peak level 100.0 % Extraction speed 5.6 X Range quality 100.0 % Test CRC 2D16CC50 Copy CRC 2D16CC50 Copy OK
No errors occurred
AccurateRip summary
Track 1 not present in databaseTrack 2 not present in databaseTrack 3 not present in databaseTrack 4 not present in databaseTrack 5 not present in databaseTrack 6 not present in databaseTrack 7 not present in databaseTrack 8 not present in databaseTrack 9 not present in databaseTrack 10 not present in databaseTrack 11 not present in databaseTrack 12 not present in databaseTrack 13 not present in databaseTrack 14 not present in databaseTrack 15 not present in databaseTrack 16 not present in databaseTrack 17 not present in database
None of the tracks are present in the AccurateRip database
End of status report
---- CUETools DB Plugin V2.1.5
[CTDB TOCID: w427lTVXwmp6bMJKdBN.IoG6_kY-] database access error: Die Verbindung mit dem Remoteserver kann nicht hergestellt werden.
==== Log checksum 07ADF29C75D3ABCD35BB5CA804086325B4AFBF6EB4B038725A5D24DAF9A4FCE9 ====

2014: Lent at Ephesus

Издатель (лейбл): Decca Records (Universal Music Classics)
Номер по каталогу: B001985902
Продолжительность: 78:25
Треклист:
01. Jesus, My Love
02. Christus Factus Est
03. God Of Mercy And Compassion
04. Hosanna To The Son Of David
05. Jesu Dulcis Amor Meus
06. Jesu Salvator Mundi
07. Improperia
08. On The Way Of The Cross
09. Pueri Hebraeorum
10. O Sacred Head Surrounded
11. Adoramus Te Christe
12. Stabat Mater
13. Divine Physician
14. Vexilla Regis
15. Mother Of Sorrows
16. Vere Languores Nostros
17. Tenebrae
18. O Come And Mourn
19. Adoramus Te Christe
20. Crux Fidelis
21. All Glory, Laud And Honor
22. Ave Regina Caelorum
23. My Mercy

Лог создания рипа

Exact Audio Copy V1.0 beta 3 from 29. August 2011
EAC extraction logfile from 25. September 2014, 22:31
Benedictines Of Mary, Queen Of Apostles / Lent At Ephesus
Used drive : HP DVD Writer 1170d Adapter: 0 ID: 0
Read mode : SecureUtilize accurate stream : YesDefeat audio cache : YesMake use of C2 pointers : No
Read offset correction : 6Overread into Lead-In and Lead-Out : NoFill up missing offset samples with silence : YesDelete leading and trailing silent blocks : NoNull samples used in CRC calculations : YesUsed interface : Native Win32 interface for Win NT & 2000
Used output format : User Defined EncoderSelected bitrate : 768 kBit/sQuality : HighAdd ID3 tag : NoCommand line compressor : C:\Program Files (x86)\Exact Audio Copy\FLAC\FLAC.EXEAdditional command line options : -V -8 -T "Date=%year%" -T "Genre=%genre%" -T"COMMENT=Ripped by Ungern666" -8 -V %source%
TOC of the extracted CD
Track | Start | Length | Start sector | End sector --------------------------------------------------------- 1 | 0:00.00 | 3:12.19 | 0 | 14418 2 | 3:12.19 | 2:35.13 | 14419 | 26056 3 | 5:47.32 | 3:26.45 | 26057 | 41551 4 | 9:14.02 | 2:29.02 | 41552 | 52728 5 | 11:43.04 | 2:42.00 | 52729 | 64878 6 | 14:25.04 | 1:58.50 | 64879 | 73778 7 | 16:23.54 | 7:30.51 | 73779 | 107579 8 | 23:54.30 | 2:00.74 | 107580 | 116653 9 | 25:55.29 | 1:59.36 | 116654 | 125614 10 | 27:54.65 | 4:02.70 | 125615 | 143834 11 | 31:57.60 | 1:10.54 | 143835 | 149138 12 | 33:08.39 | 7:32.67 | 149139 | 183105 13 | 40:41.31 | 3:37.17 | 183106 | 199397 14 | 44:18.48 | 4:07.51 | 199398 | 217973 15 | 48:26.24 | 5:01.63 | 217974 | 240611 16 | 53:28.12 | 2:05.60 | 240612 | 250046 17 | 55:33.72 | 3:41.31 | 250047 | 266652 18 | 59:15.28 | 2:52.03 | 266653 | 279555 19 | 62:07.31 | 1:41.38 | 279556 | 287168 20 | 63:48.69 | 7:41.52 | 287169 | 321795 21 | 71:30.46 | 2:43.07 | 321796 | 334027 22 | 74:13.53 | 0:54.51 | 334028 | 338128 23 | 75:08.29 | 3:17.18 | 338129 | 352921
Range status and errors
Selected range
Filename C:\EAC\Ungern666\Benedictines Of Mary, Queen Of Apostles - Lent At Ephesus.wav
Peak level 97.8 % Extraction speed 6.9 X Range quality 100.0 % Test CRC F721381F Copy CRC F721381F Copy OK
No errors occurred
AccurateRip summary
Track 1 accurately ripped (confidence 4) [9D6E8C80] (AR v2)Track 2 accurately ripped (confidence 4) [1B531A2E] (AR v2)Track 3 accurately ripped (confidence 4) [CD59426F] (AR v2)Track 4 accurately ripped (confidence 3) [F76ECB21] (AR v2)Track 5 accurately ripped (confidence 4) [A305FD48] (AR v2)Track 6 accurately ripped (confidence 4) [47F0A46E] (AR v2)Track 7 accurately ripped (confidence 4) [4EE60B18] (AR v2)Track 8 accurately ripped (confidence 4) [0EAD5211] (AR v2)Track 9 accurately ripped (confidence 4) [1D447A5D] (AR v2)Track 10 accurately ripped (confidence 4) [E45111E6] (AR v2)Track 11 accurately ripped (confidence 4) [0AE2E137] (AR v2)Track 12 accurately ripped (confidence 4) [68052142] (AR v2)Track 13 accurately ripped (confidence 4) [2FED672C] (AR v2)Track 14 accurately ripped (confidence 4) [94442206] (AR v2)Track 15 accurately ripped (confidence 4) [3A3E3C8B] (AR v2)Track 16 accurately ripped (confidence 3) [84DD1C2E] (AR v2)Track 17 accurately ripped (confidence 4) [A6217444] (AR v2)Track 18 accurately ripped (confidence 4) [E9679B78] (AR v2)Track 19 accurately ripped (confidence 4) [AE5ED2AC] (AR v2)Track 20 accurately ripped (confidence 4) [1B6B5C68] (AR v2)Track 21 accurately ripped (confidence 4) [71B597AC] (AR v2)Track 22 accurately ripped (confidence 4) [3D41FCEB] (AR v2)Track 23 accurately ripped (confidence 4) [43FF6906] (AR v2)
All tracks accurately ripped
End of status report
==== Log checksum A8E5C373179F107FA2576F9D136C594328D9D01BC66E3F539987637643A97A6B ====

Об исполнителе (группе)

http://benedictinesofmary.org/
Материал предназначен для ознакомления!
[teatrix.ru].t7904.torrent 
Торрент: Зарегистрирован [ 2015-10-14 02:42 ] · D2EDD413568C58CCA11717FD781B6BDE181FD0BA

Скачать .torrent

Скачать

21 KB

Статус: проверено
Скачан: 0 раз
Размер: 916 MB
terms.php



Быстрый ответ

Имя:

      
Для отправки сообщений необходимо включить JavaScript
Показать сообщения:    

Текущее время: 09-Дек 03:05

Часовой пояс: UTC + 3


Вы можете начинать темы
Вы можете отвечать на сообщения
Вы не можете редактировать свои сообщения
Вы не можете удалять свои сообщения
Вы не можете голосовать в опросах
Вы не можете прикреплять файлы к сообщениям
Вы можете скачивать файлы