(Sacred, Choral)Thomas Tallis - Spem in Alium, Missa Salve intemerata (Oxford Camerata, Jeremy Summerly) - 2005, FLAC (image+.cue) lossless


Статистика раздачи [Обновить пиров]
Размер:  301 MB   |    Зарегистрирован:  1 год 1 месяц   |    Скачан:  0 раз

Полного источника не было: Никогда

 
   
 
 
 

[Цитировать]

Thomas Tallis - Spem in Alium
Oxford Camerata | Jeremy Summerly
Жанр: Sacred, Choral
Страна-производитель диска: UK
Год издания диска: 2005
Издатель (лейбл): Naxos
Номер по каталогу: 8.557770
Дата записи: 2005
Аудиокодек: FLAC
Тип рипа: image+.cue
Битрейт аудио: lossless
Продолжительность: 77:19
Источник: собственный рип
Наличие сканов в содержимом раздачи: да
Треклист:
1. Spem in alium (40-voice motet) (12.14)
2. Mass "Salve intemerata" Salve intemerata (motet) (23.1)
3. : Gloria (6.41)
4. Credo (7.56)
5. Sanctus (7.47)
6. Agnus dei (5.27)
7. With all our heart (3.15)
8. Discomfort them, O Lord (6.38)
9. I call and cry to thee, O Lord (4.12)
Исполнители:
Oxford Camerata
Jeremy Summerly
- conductor

Лог создания рипа

Exact Audio Copy V1.0 beta 3 from 29. August 2011
EAC extraction logfile from 1. October 2014, 19:38
Oxford Camerata, Jeremy Summerly / Spem in alium
Used drive : TSSTcorp CDDVDW Adapter: 0 ID: 0
Read mode : SecureUtilize accurate stream : YesDefeat audio cache : YesMake use of C2 pointers : No
Read offset correction : 6Overread into Lead-In and Lead-Out : NoFill up missing offset samples with silence : YesDelete leading and trailing silent blocks : NoNull samples used in CRC calculations : YesUsed interface : Installed external ASPI interface
Used output format : User Defined EncoderSelected bitrate : 768 kBit/sQuality : HighAdd ID3 tag : NoCommand line compressor : C:\Program Files (x86)\Exact Audio Copy\FLAC\FLAC.EXEAdditional command line options : -6 -V -T "ARTIST=%artist%" -T "TITLE=%title%" -T "ALBUM=%albumtitle%" -T "DATE=%year%" -T "TRACKNUMBER=%tracknr%" -T "GENRE=%genre%" -T "COMMENT=%comment%" -T "BAND=%albuminterpret%" -T "ALBUMARTIST=%albuminterpret%" -T "COMPOSER=%composer%" %haslyrics%--tag-from-file=LYRICS="%lyricsfile%"%haslyrics% -T "DISCNUMBER=%cdnumber%" -T "TOTALDISCS=%totalcds%" -T "TOTALTRACKS=%numtracks%" %hascover%--picture="%coverfile%"%hascover% %source% -o %dest%
TOC of the extracted CD
Track | Start | Length | Start sector | End sector --------------------------------------------------------- 1 | 0:00.00 | 12:19.40 | 0 | 55464 2 | 12:19.40 | 23:09.55 | 55465 | 159694 3 | 35:29.20 | 6:36.60 | 159695 | 189454 4 | 42:06.05 | 7:55.07 | 189455 | 225086 5 | 50:01.12 | 7:47.20 | 225087 | 260131 6 | 57:48.32 | 5:31.25 | 260132 | 284981 7 | 63:19.57 | 3:11.55 | 284982 | 299361 8 | 66:31.37 | 6:36.58 | 299362 | 329119 9 | 73:08.20 | 4:09.10 | 329120 | 347804
Range status and errors
Selected range
Filename C:\RIP\Tallis - Spem in Alium (Summerly).wav
Peak level 88.5 % Extraction speed 3.4 X Range quality 99.9 % Test CRC B608C866 Copy CRC B608C866 Copy OK
No errors occurred
AccurateRip summary
Track 1 accurately ripped (confidence 5) [5ABBF1A8] (AR v2)Track 2 accurately ripped (confidence 5) [FE21BE3E] (AR v2)Track 3 accurately ripped (confidence 5) [0C38A98D] (AR v2)Track 4 accurately ripped (confidence 5) [6DE04700] (AR v2)Track 5 accurately ripped (confidence 5) [7470661B] (AR v2)Track 6 accurately ripped (confidence 5) [F33B0152] (AR v2)Track 7 accurately ripped (confidence 5) [84965813] (AR v2)Track 8 accurately ripped (confidence 5) [F5506F62] (AR v2)Track 9 accurately ripped (confidence 5) [BC63B9C8] (AR v2)
All tracks accurately ripped
End of status report
==== Log checksum A492ED02AA6E4865BFC12D4FEE0A48A76DDEC1913ADF37F678E7F7DF103FBD1B ====
[teatrix.ru].t7905.torrent 
Торрент: Зарегистрирован [ 2015-10-14 02:42 ] · 58A57F17327409C2BE440CC0B20128C224E43162

Скачать .torrent

Скачать

13 KB

Статус: проверено
Скачан: 0 раз
Размер: 301 MB
terms.php



Быстрый ответ

Имя:

      
Для отправки сообщений необходимо включить JavaScript
Показать сообщения:    

Текущее время: 05-Дек 15:32

Часовой пояс: UTC + 3


Вы можете начинать темы
Вы можете отвечать на сообщения
Вы не можете редактировать свои сообщения
Вы не можете удалять свои сообщения
Вы не можете голосовать в опросах
Вы не можете прикреплять файлы к сообщениям
Вы можете скачивать файлы