(Baroque Oratorio) Handel - Athalia (Scholl, Schlick, Holzhausen, Reinhold, MacLeod - Barockorchester Frankfurt, Martini) - 1998, APE (image+.cue) lossless


Статистика раздачи [Обновить пиров]
Размер:  534 MB   |    Зарегистрирован:  1 год 1 месяц   |    Скачан:  2 раза

Полного источника не было: 2 месяца 7 дней

 
   
 
 
 

[Цитировать]

George Frideric Handel - Athalia HWV 52
Жанр: Baroque Oratorio
Страна-производитель диска: EU
Год издания диска: 1998
Издатель (лейбл): Naxos
Номер по каталогу: 8.554.364-65
Дата записи: 1996
Аудиокодек: APE
Тип рипа: image+.cue
Битрейт аудио: lossless
Продолжительность: 57'38+71'07
Источник: собственный рип
Наличие сканов в содержимом раздачи: да
Треклист:

CD1

1. Part 1 - No. 1 Sinfonia: Allegro - Grave - Allegro
2. Part 1, Scene 1: No. 2 Aria
3. Part 1, Scene 1: No. 3a Chorus - No. 3b Chorus
4. Part 1, Scene 1: No. 4 Aria and Chorus
5. Part 1, Scene 1: No. 5 Recitativo
6. Part 1, Scene 1: No. 6 Aria
7. Part 1, Scene 2: No. 7 Recitativo
8. Part 1, Scene 2: No. 8 Accompagnato
9. Part 1, Scene 2: No. 9 Aria and Chorus
10. Part 1, Scene 3: No. 10 Arioso
11. Part 1, Scene 3: No. 11a Recitativo
12. Part 1, Scene 3: No. 11b Arioso
13. Part 1, Scene 3: No. 12 Chorus of Attendants and Sidonian Priests
14. Part 1, Scene 3: No. 13 Recitativo
15. Part 1, Scene 3: No. 14 Chorus of Attendants and Sidonian Priests
16. Part 1, Scene 3: No. 15 Recitativo
17. Part 1, Scene 3: No. 16 Aria
18. Part 1, Scene 3: No. 17 Aria
19. Part 1, Scene 3: No. 18 Recitativo
20. Part 1, Scene 3: No. 19 Chorus of Attendants
21. Part 1, Scene 4: No. 20 Recitativo
22. Part 1, Scene 4: No. 21 Aria
23. Part 1, Scene 4: No. 22 Recitativo
24. Part 1, Scene 4: No. 23 Aria and Chorus
25. Part 1, Scene 4: Chorus of Israelites

CD2

1. Part 2, Scene 1: No. 24 Chorus and Aria
2. Part 2, Scene 1: No. 25 Aria
3. Part 2, Scene 1: No. 26 Recitativo
4. Part 2, Scene 1: No. 27 Aria
5. Part 2, Scene 1: No. 28 Recitativo
6. Part 2, Scene 2: No. 29 Recitativo
7. Part 2, Scene 2: No. 30 Aria
8. Part 2, Scene 2: No. 31 Recitativo
9. Part 2, Scene 2: No. 32 Aria
10. Part 2, Scene 2: No. 33 Duet
11. Part 2, Scene 2: No. 34 Aria
12. Part 2, Scene 3: No. 35 Recitativo
13. Part 2, Scene 3: No. 36 Duet
14. Part 2, Scene 3: No. 37 Recitativo
15. Part 2, Scene 3: No. 38 Chorus
16. Part 3, Scene 1: No. 39 Arioso
17. Part 3, Scene 1: No. 40 Chorus of Virgins, Priests and Levites
18. Part 3, Scene 1: No. 41 Accompagnato
19. Part 3, Scene 1: No. 42 Aria and Chorus
20. Part 3, Scene 1: No. 43 Recitativo
21. Part 3, Scene 1: No. 44 Chorus of Virgins, Priests and Levites
22. Part 3, Scene 2: No. 45 Recitativo
23. Part 3, Scene 2: No. 46 Aria
24. Part 3, Scene 3: No. 47a Recitativo
25. Part 3, Scene 4: No. 47b Recitativo
26. Part 3, Scene 4: No. 48 Chorus and Aria
27. Part 3, Scene 4: No. 49 Recitativo
28. Part 3, Scene 4: No. 50 Aria
29. Part 3, Scene 4: No. 51 Recitativo
30. Part 3, Scene 4: No. 52 Aria
31. Part 3, Scene 4: No. 53 Recitativo
32. Part 3, Scene 4: No. 54 Aria
33. Part 3, Final Scene: No. 55 Recitativo
34. Part 3, Final Scene: No. 56 Duet
35. Part 3, Final Scene: No. 57 Recitativo
36. Part 3, Final Scene: No. 58 Chorus of Young Virgins, Priests, Levites, Israelites
Исполнители:
George Frideric Handel - Athalia HWV 52
English Oratorio in 3 acts
Athalia - Elisabeth Scholl, Soprano
Josabeth - Barbara Schlick, Soprano
Joas - Friederike Holzhausen, Soprano
Mathan - Markus Brutscher, Tenor
Abner - Stephan MacLeod, Bass
Joad - Annette Reinhold, Contralto
Junge Kantorei
Frankfurt Baroque Orchestra
Joachim Carlos Martini

Лог создания рипа

CD1

Exact Audio Copy V1.0 beta 3 from 29. August 2011
EAC extraction logfile from 12. August 2014, 17:04
Handel / Athalia, Martini CD1
Used drive : TS8XDVDSTRANSCEND Adapter: 1 ID: 0
Read mode : Secure
Utilize accurate stream : Yes
Defeat audio cache : Yes
Make use of C2 pointers : No
Read offset correction : 6
Overread into Lead-In and Lead-Out : No
Fill up missing offset samples with silence : Yes
Delete leading and trailing silent blocks : No
Null samples used in CRC calculations : Yes
Used interface : Native Win32 interface for Win NT & 2000
Used output format : Monkey's Audio Lossless Encoder
Selected bitrate : High Lossless Compression
Quality : High
Add ID3 tag : No
Command line compressor : C:\Program Files (x86)\Exact Audio Copy\MAC\MAC.exe
TOC of the extracted CD
Track | Start | Length | Start sector | End sector
---------------------------------------------------------
1 | 0:00.00 | 5:09.37 | 0 | 23211
2 | 5:09.37 | 5:34.73 | 23212 | 48334
3 | 10:44.35 | 3:27.15 | 48335 | 63874
4 | 14:11.50 | 2:57.62 | 63875 | 77211
5 | 17:09.37 | 0:11.73 | 77212 | 78109
6 | 17:21.35 | 3:57.57 | 78110 | 95941
7 | 21:19.17 | 0:23.20 | 95942 | 97686
8 | 21:42.37 | 1:33.28 | 97687 | 104689
9 | 23:15.65 | 5:13.55 | 104690 | 128219
10 | 28:29.45 | 0:53.15 | 128220 | 132209
11 | 29:22.60 | 0:41.57 | 132210 | 135341
12 | 30:04.42 | 0:34.15 | 135342 | 137906
13 | 30:38.57 | 2:01.03 | 137907 | 146984
14 | 32:39.60 | 0:43.37 | 146985 | 150246
15 | 33:23.22 | 2:25.68 | 150247 | 161189
16 | 35:49.15 | 1:18.12 | 161190 | 167051
17 | 37:07.27 | 3:30.15 | 167052 | 182816
18 | 40:37.42 | 3:35.30 | 182817 | 198971
19 | 44:12.72 | 0:17.33 | 198972 | 200279
20 | 44:30.30 | 0:44.50 | 200280 | 203629
21 | 45:15.05 | 1:27.29 | 203630 | 210183
22 | 46:42.34 | 5:36.71 | 210184 | 235454
23 | 52:19.30 | 0:42.20 | 235455 | 238624
24 | 53:01.50 | 2:04.47 | 238625 | 247971
25 | 55:06.22 | 2:29.28 | 247972 | 259174
Range status and errors
Selected range
Filename D:\EAC\Handel - Athalia, Martini CD1.wav
Peak level 96.9 %
Extraction speed 3.0 X
Range quality 100.0 %
Test CRC 6D7E0F59
Copy CRC 6D7E0F59
Copy OK
No errors occurred
AccurateRip summary
Track 1 accurately ripped (confidence 3) [B6BFBA47] (AR v1)
Track 2 accurately ripped (confidence 3) [C98DB063] (AR v1)
Track 3 accurately ripped (confidence 3) [F3270BFD] (AR v1)
Track 4 accurately ripped (confidence 3) [116FDD34] (AR v1)
Track 5 accurately ripped (confidence 3) [77D90E24] (AR v1)
Track 6 accurately ripped (confidence 3) [895CBF32] (AR v1)
Track 7 accurately ripped (confidence 3) [41F1A11A] (AR v1)
Track 8 accurately ripped (confidence 3) [0D63CC58] (AR v1)
Track 9 accurately ripped (confidence 3) [8BFB96A4] (AR v1)
Track 10 accurately ripped (confidence 3) [3464CBAA] (AR v1)
Track 11 accurately ripped (confidence 3) [DB2EC172] (AR v1)
Track 12 accurately ripped (confidence 3) [1668E7C5] (AR v1)
Track 13 accurately ripped (confidence 3) [D5A19431] (AR v1)
Track 14 accurately ripped (confidence 3) [3490BAA1] (AR v1)
Track 15 accurately ripped (confidence 3) [0C64ED21] (AR v1)
Track 16 accurately ripped (confidence 3) [CDBFD80B] (AR v1)
Track 17 accurately ripped (confidence 3) [B482B47A] (AR v1)
Track 18 accurately ripped (confidence 3) [46123C73] (AR v1)
Track 19 accurately ripped (confidence 3) [3EFDC243] (AR v1)
Track 20 accurately ripped (confidence 3) [E78362E1] (AR v1)
Track 21 accurately ripped (confidence 3) [8ACDF5A7] (AR v1)
Track 22 accurately ripped (confidence 3) [7E567A1C] (AR v1)
Track 23 accurately ripped (confidence 3) [FBEB1299] (AR v1)
Track 24 accurately ripped (confidence 3) [1AE4CAB2] (AR v1)
Track 25 accurately ripped (confidence 3) [6CBBCD26] (AR v1)
All tracks accurately ripped
End of status report
---- CUETools DB Plugin V2.1.3
[CTDB TOCID: BXqVjGiX8WRj7LD4plE8aGcdWVg-] found, Submit result: unrecognized or virtual drive
[20363ef6] (15/15) Accurately ripped
==== Log checksum 157930C8F9883C957FBD212F266F38FCAA5EA9CB22E4D927B59ED24DBA66E93D ====

CD2

Exact Audio Copy V1.0 beta 3 from 29. August 2011
EAC extraction logfile from 12. August 2014, 16:54
Handel / Athalia, Martini CD2
Used drive : TSSTcorpCDDVDW SE-208AB Adapter: 1 ID: 1
Read mode : Secure
Utilize accurate stream : Yes
Defeat audio cache : Yes
Make use of C2 pointers : No
Read offset correction : 6
Overread into Lead-In and Lead-Out : No
Fill up missing offset samples with silence : Yes
Delete leading and trailing silent blocks : No
Null samples used in CRC calculations : Yes
Used interface : Native Win32 interface for Win NT & 2000
Used output format : Monkey's Audio Lossless Encoder
Selected bitrate : High Lossless Compression
Quality : High
Add ID3 tag : No
Command line compressor : C:\Program Files (x86)\Exact Audio Copy\MAC\MAC.exe
TOC of the extracted CD
Track | Start | Length | Start sector | End sector
---------------------------------------------------------
1 | 0:00.00 | 6:55.62 | 0 | 31186
2 | 6:55.62 | 9:08.08 | 31187 | 72294
3 | 16:03.70 | 0:43.07 | 72295 | 75526
4 | 16:47.02 | 3:34.28 | 75527 | 91604
5 | 20:21.30 | 0:29.47 | 91605 | 93826
6 | 20:51.02 | 1:44.68 | 93827 | 101694
7 | 22:35.70 | 2:19.67 | 101695 | 112186
8 | 24:55.62 | 1:04.63 | 112187 | 117049
9 | 26:00.50 | 4:40.15 | 117050 | 138064
10 | 30:40.65 | 4:33.65 | 138065 | 158604
11 | 35:14.55 | 1:41.45 | 158605 | 166224
12 | 36:56.25 | 0:30.57 | 166225 | 168531
13 | 37:27.07 | 6:38.73 | 168532 | 198454
14 | 44:06.05 | 0:14.67 | 198455 | 199571
15 | 44:20.72 | 3:47.50 | 199572 | 216646
16 | 48:08.47 | 0:54.20 | 216647 | 220716
17 | 49:02.67 | 0:46.73 | 220717 | 224239
18 | 49:49.65 | 0:26.47 | 224240 | 226236
19 | 50:16.37 | 2:34.55 | 226237 | 237841
20 | 52:51.17 | 1:19.13 | 237842 | 243779
21 | 54:10.30 | 0:24.62 | 243780 | 245641
22 | 54:35.17 | 0:33.13 | 245642 | 248129
23 | 55:08.30 | 1:34.50 | 248130 | 255229
24 | 56:43.05 | 0:17.42 | 255230 | 256546
25 | 57:00.47 | 0:22.23 | 256547 | 258219
26 | 57:22.70 | 1:54.45 | 258220 | 266814
27 | 59:17.40 | 0:48.42 | 266815 | 270456
28 | 60:06.07 | 1:06.30 | 270457 | 275436
29 | 61:12.37 | 0:46.63 | 275437 | 278949
30 | 61:59.25 | 1:51.20 | 278950 | 287294
31 | 63:50.45 | 0:52.37 | 287295 | 291231
32 | 64:43.07 | 0:58.65 | 291232 | 295646
33 | 65:41.72 | 0:17.70 | 295647 | 296991
34 | 65:59.67 | 2:10.33 | 296992 | 306774
35 | 68:10.25 | 0:24.67 | 306775 | 308641
36 | 68:35.17 | 2:30.08 | 308642 | 319899
Range status and errors
Selected range
Filename D:\EAC\Handel - Athalia, Martini CD2.wav
Peak level 100.0 %
Extraction speed 5.1 X
Range quality 100.0 %
Test CRC 0610C5EF
Copy CRC 0610C5EF
Copy OK
No errors occurred
AccurateRip summary
Track 1 cannot be verified as accurate (confidence 6) [2494C4BC], AccurateRip returned [89C1FC01] (AR v2)
Track 2 cannot be verified as accurate (confidence 6) [A23951BB], AccurateRip returned [8DAE71CF] (AR v2)
Track 3 cannot be verified as accurate (confidence 6) [5CB6724E], AccurateRip returned [B3D9831E] (AR v2)
Track 4 cannot be verified as accurate (confidence 6) [753B0790], AccurateRip returned [442D292A] (AR v2)
Track 5 cannot be verified as accurate (confidence 6) [E54BABF7], AccurateRip returned [A254C62B] (AR v2)
Track 6 cannot be verified as accurate (confidence 6) [CFF5FE3C], AccurateRip returned [F3BF34B5] (AR v2)
Track 7 cannot be verified as accurate (confidence 6) [A2DE50A6], AccurateRip returned [B71393B6] (AR v2)
Track 8 cannot be verified as accurate (confidence 6) [5E695078], AccurateRip returned [61C09794] (AR v2)
Track 9 cannot be verified as accurate (confidence 6) [67C492E9], AccurateRip returned [284B4EF5] (AR v2)
Track 10 cannot be verified as accurate (confidence 6) [57503222], AccurateRip returned [E15A1EAC] (AR v2)
Track 11 cannot be verified as accurate (confidence 6) [B4E4A9E5], AccurateRip returned [0A815604] (AR v2)
Track 12 cannot be verified as accurate (confidence 6) [A4D465B2], AccurateRip returned [EA7CFF2D] (AR v2)
Track 13 cannot be verified as accurate (confidence 5) [3AC45FC7], AccurateRip returned [5D2FBA8B] (AR v2)
Track 14 cannot be verified as accurate (confidence 6) [162B0245], AccurateRip returned [EB0B9830] (AR v2)
Track 15 cannot be verified as accurate (confidence 6) [A3110F13], AccurateRip returned [46DA8112] (AR v2)
Track 16 cannot be verified as accurate (confidence 6) [85B5050F], AccurateRip returned [BD2AB175] (AR v2)
Track 17 cannot be verified as accurate (confidence 6) [0305CDA3], AccurateRip returned [F2CB5C0C] (AR v2)
Track 18 cannot be verified as accurate (confidence 6) [F28F0F88], AccurateRip returned [A6F09978] (AR v2)
Track 19 cannot be verified as accurate (confidence 6) [7F7ECA1C], AccurateRip returned [3339DDDB] (AR v2)
Track 20 cannot be verified as accurate (confidence 6) [CBF40A9F], AccurateRip returned [78A3A7D8] (AR v2)
Track 21 cannot be verified as accurate (confidence 6) [4EFFDA4E], AccurateRip returned [F0449C32] (AR v2)
Track 22 cannot be verified as accurate (confidence 6) [B0229EE3], AccurateRip returned [1C2A8C2E] (AR v2)
Track 23 cannot be verified as accurate (confidence 6) [2FF78EC0], AccurateRip returned [65CD7A8F] (AR v2)
Track 24 cannot be verified as accurate (confidence 6) [C6132E54], AccurateRip returned [286E8056] (AR v2)
Track 25 cannot be verified as accurate (confidence 6) [5E26B201], AccurateRip returned [A28BE421] (AR v2)
Track 26 cannot be verified as accurate (confidence 6) [6CA428D6], AccurateRip returned [32A24B9B] (AR v2)
Track 27 cannot be verified as accurate (confidence 6) [C76190A3], AccurateRip returned [22B309FC] (AR v2)
Track 28 cannot be verified as accurate (confidence 6) [69962AB3], AccurateRip returned [B424AC8D] (AR v2)
Track 29 cannot be verified as accurate (confidence 6) [2E069484], AccurateRip returned [8BCDF4EA] (AR v2)
Track 30 cannot be verified as accurate (confidence 6) [7B103AD0], AccurateRip returned [D7F8C7A4] (AR v2)
Track 31 cannot be verified as accurate (confidence 6) [05092CFB], AccurateRip returned [565C96EF] (AR v2)
Track 32 cannot be verified as accurate (confidence 6) [81773E04], AccurateRip returned [E8070C27] (AR v2)
Track 33 cannot be verified as accurate (confidence 6) [3A6F1ACB], AccurateRip returned [75243F8B] (AR v2)
Track 34 cannot be verified as accurate (confidence 6) [C72A2BA8], AccurateRip returned [0A338579] (AR v2)
Track 35 cannot be verified as accurate (confidence 6) [FFAC80D9], AccurateRip returned [D4D2D72C] (AR v2)
Track 36 cannot be verified as accurate (confidence 6) [7E08A01B], AccurateRip returned [2F538CF2] (AR v2)
No tracks could be verified as accurate
You may have a different pressing from the one(s) in the database
End of status report
---- CUETools DB Plugin V2.1.3
[CTDB TOCID: p4ET7GnTTmgpQZ_P0IzOXPXuFVY-] found, Submit result: p4ET7GnTTmgpQZ_P0IzOXPXuFVY- has been confirmed
[5598794d] (13/13) Accurately ripped
==== Log checksum F2B46EFC18DE04FA0E52B5B607C5FE7C60957DB6D9D10868762B6DEB2D9255D2 ====

Содержание индексной карты (.CUE)

CD1

REM GENRE Classical
REM DATE 1996
REM DISCID 3E0D7F19
REM COMMENT "ExactAudioCopy v1.0b3"
PERFORMER "Handel"
TITLE "Athalia, Martini CD1"
FILE "Handel - Athalia, Martini CD1.ape" WAVE
TRACK 01 AUDIO
TITLE "Athalia: Part I: Sinfonia"
PERFORMER "Handel"
ISRC HKI199804201
INDEX 01 00:00:00
TRACK 02 AUDIO
TITLE "Athalia: Part I: Aria: Blooming virgins"
PERFORMER "Handel"
ISRC HKI199804202
INDEX 01 05:09:37
TRACK 03 AUDIO
TITLE "Athalia: Part I: Chorus: The rising world"
PERFORMER "Handel"
ISRC HKI199804203
INDEX 01 10:44:35
TRACK 04 AUDIO
TITLE "Athalia: Part I: Aria and Chorus: Tyrants"
PERFORMER "Handel"
ISRC HKI199804204
INDEX 01 14:11:50
TRACK 05 AUDIO
TITLE "Athalia: Part I: Recitative: When He"
PERFORMER "Handel"
ISRC HKI199804205
INDEX 01 17:09:37
TRACK 06 AUDIO
TITLE "Athalia: Part I: Aria: When storms"
PERFORMER "Handel"
ISRC HKI199804206
INDEX 01 17:21:35
TRACK 07 AUDIO
TITLE "Athalia: Part I: Recitative: Your sacred"
PERFORMER "Handel"
ISRC HKI199804207
INDEX 01 21:19:17
TRACK 08 AUDIO
TITLE "Athalia: Part I: Accompanied Recitative: O Judah"
PERFORMER "Handel"
ISRC HKI199804208
INDEX 01 21:42:37
TRACK 09 AUDIO
TITLE "Athalia: Part I: Aria and Chorus: O Lord"
PERFORMER "Handel"
ISRC HKI199804209
INDEX 01 23:15:65
TRACK 10 AUDIO
TITLE "Athalia: Part I: Arioso: What scenes"
PERFORMER "Handel"
ISRC HKI199804210
INDEX 01 28:29:45
TRACK 11 AUDIO
TITLE "Athalia: Part I: Recitative: O Mathan"
PERFORMER "Handel"
ISRC HKI199804211
INDEX 01 29:22:60
TRACK 12 AUDIO
TITLE "Athalia: Part I: Arioso: O Athalia"
PERFORMER "Handel"
ISRC HKI199804212
INDEX 01 30:04:42
TRACK 13 AUDIO
TITLE "Athalia: Part I: Chorus: The gods"
PERFORMER "Handel"
ISRC HKI199804213
INDEX 01 30:38:57
TRACK 14 AUDIO
TITLE "Athalia: Part I: Recitative: Her form"
PERFORMER "Handel"
ISRC HKI199804214
INDEX 01 32:39:60
TRACK 15 AUDIO
TITLE "Athalia: Part I: Chorus: Cheer her"
PERFORMER "Handel"
ISRC HKI199804215
INDEX 01 33:23:22
TRACK 16 AUDIO
TITLE "Athalia: Part I: Recitative: Amidst these"
PERFORMER "Handel"
ISRC HKI199804216
INDEX 01 35:49:15
TRACK 17 AUDIO
TITLE "Athalia: Part I: Aria: Gentle airs"
PERFORMER "Handel"
ISRC HKI199804217
INDEX 01 37:07:27
TRACK 18 AUDIO
TITLE "Athalia: Part I: Aria: Softest sounds"
PERFORMER "Handel"
ISRC HKI199804218
INDEX 01 40:37:42
TRACK 19 AUDIO
TITLE "Athalia: Part I: Recitative: Swift to"
PERFORMER "Handel"
ISRC HKI199804219
INDEX 01 44:12:72
TRACK 20 AUDIO
TITLE "Athalia: Part I: Chorus: The traitor"
PERFORMER "Handel"
ISRC HKI199804220
INDEX 01 44:30:30
TRACK 21 AUDIO
TITLE "Athalia: Part I: Recitative: My Josabeth!"
PERFORMER "Handel"
ISRC HKI199804221
INDEX 01 45:15:05
TRACK 22 AUDIO
TITLE "Athalia: Part I: Aria: Faithful cares"
PERFORMER "Handel"
ISRC HKI199804222
INDEX 01 46:42:34
TRACK 23 AUDIO
TITLE "Athalia: Part I: Recitative: O cease"
PERFORMER "Handel"
ISRC HKI199804223
INDEX 01 52:19:30
TRACK 24 AUDIO
TITLE "Athalia: Part I: Aria and Chorus: Gloomy tyrants"
PERFORMER "Handel"
ISRC HKI199804224
INDEX 01 53:01:50
TRACK 25 AUDIO
TITLE "Athalia: Part I: Chorus: Alleluja!"
PERFORMER "Handel"
ISRC HKI199804225
INDEX 01 55:06:22

CD2

REM GENRE Classical
REM DATE 1996
REM DISCID 2210A924
REM COMMENT "ExactAudioCopy v1.0b3"
PERFORMER "Handel"
TITLE "Athalia, Martini CD2"
FILE "Handel - Athalia, Martini CD2.ape" WAVE
TRACK 01 AUDIO
TITLE "Athalia: Part II: Chorus and Aria. The mighty pow'r"
PERFORMER "Handel"
ISRC HKI199804301
INDEX 01 00:00:00
TRACK 02 AUDIO
TITLE "Athalia: Part II: Aria: Through the land"
PERFORMER "Handel"
ISRC HKI199804302
INDEX 01 06:55:62
TRACK 03 AUDIO
TITLE "Athalia: Part II: Recitative: Ah! Were this land"
PERFORMER "Handel"
ISRC HKI199804303
INDEX 01 16:03:70
TRACK 04 AUDIO
TITLE "Athalia: Part II: Aria: Ah, canst thou"
PERFORMER "Handel"
ISRC HKI199804304
INDEX 01 16:47:02
TRACK 05 AUDIO
TITLE "Athalia: Part II: Recitative: Thou dost"
PERFORMER "Handel"
ISRC HKI199804305
INDEX 01 20:21:30
TRACK 06 AUDIO
TITLE "Athalia: Part II: Recitative: Confusion"
PERFORMER "Handel"
ISRC HKI199804306
INDEX 01 20:51:02
TRACK 07 AUDIO
TITLE "Athalia: Part II: Aria: Will God"
PERFORMER "Handel"
ISRC HKI199804307
INDEX 01 22:35:70
TRACK 08 AUDIO
TITLE "Athalia: Part II: Recitative: 'Tis my intention"
PERFORMER "Handel"
ISRC HKI199804308
INDEX 01 24:55:62
TRACK 09 AUDIO
TITLE "Athalia: Part II: Aria: My vengeance"
PERFORMER "Handel"
ISRC HKI199804309
INDEX 01 26:00:50
TRACK 10 AUDIO
TITLE "Athalia: Part II: Duet: My spirits fail"
PERFORMER "Handel"
ISRC HKI199804310
INDEX 01 30:40:65
TRACK 11 AUDIO
TITLE "Athalia: Part II: Aria: In Jehovah's awful sight"
PERFORMER "Handel"
ISRC HKI199804311
INDEX 01 35:14:55
TRACK 12 AUDIO
TITLE "Athalia: Part II: Recitative: Dear Josabeth"
PERFORMER "Handel"
ISRC HKI199804311
INDEX 01 36:56:25
TRACK 13 AUDIO
TITLE "Athalia: Part II: Duet: Cease thy anguish"
PERFORMER "Handel"
ISRC HKI199804313
INDEX 01 37:27:07
TRACK 14 AUDIO
TITLE "Athalia: Part II: Recitative: Joad, ere day"
PERFORMER "Handel"
ISRC HKI199804314
INDEX 01 44:06:05
TRACK 15 AUDIO
TITLE "Athalia: Part II: Chorus: The clouded scene"
PERFORMER "Handel"
ISRC HKI199804315
INDEX 01 44:20:72
TRACK 16 AUDIO
TITLE "Athalia: Part III: Arioso: What sacred horrors"
PERFORMER "Handel"
ISRC HKI199804316
INDEX 00 48:01:05
INDEX 01 48:08:47
TRACK 17 AUDIO
TITLE "Athalia: Part III: Chorus: Unfold, great seer"
PERFORMER "Handel"
ISRC HKI199804316
INDEX 01 49:02:67
TRACK 18 AUDIO
TITLE "Athalia: Part III: Accompanied Recitative: Let harmony"
PERFORMER "Handel"
ISRC HKI199804318
INDEX 01 49:49:65
TRACK 19 AUDIO
TITLE "Athalia: Part III: Aria and Chorus: Jerusalem"
PERFORMER "Handel"
ISRC HKI199804319
INDEX 01 50:16:37
TRACK 20 AUDIO
TITLE "Athalia: Part III: Recitative: Eliakim!"
PERFORMER "Handel"
ISRC HKI199804320
INDEX 01 52:51:17
TRACK 21 AUDIO
TITLE "Athalia: Part III: Chorus: With firm united hearts"
PERFORMER "Handel"
ISRC HKI199804321
INDEX 01 54:10:30
TRACK 22 AUDIO
TITLE "Athalia: Part III: Recitative: Oh princess"
PERFORMER "Handel"
ISRC HKI199804321
INDEX 01 54:35:17
TRACK 23 AUDIO
TITLE "Athalia: Part III: Aria: Soothing tyrant"
PERFORMER "Handel"
ISRC HKI199804323
INDEX 01 55:08:30
TRACK 24 AUDIO
TITLE "Athalia: Part III: Recitative: Apostate priest!"
PERFORMER "Handel"
ISRC HKI199804324
INDEX 01 56:43:05
TRACK 25 AUDIO
TITLE "Athalia: Part III: Recitative: Oh bold seducer"
PERFORMER "Handel"
ISRC HKI199804324
INDEX 01 57:00:47
TRACK 26 AUDIO
TITLE "Athalia: Part III: Chorus and Aria: Around let"
PERFORMER "Handel"
ISRC HKI199804326
INDEX 01 57:22:70
TRACK 27 AUDIO
TITLE "Athalia: Part III: Recitative: Oh treason"
PERFORMER "Handel"
ISRC HKI199804327
INDEX 01 59:17:40
TRACK 28 AUDIO
TITLE "Athalia: Part III: Aria: Oppression"
PERFORMER "Handel"
ISRC HKI199804328
INDEX 01 60:06:07
TRACK 29 AUDIO
TITLE "Athalia: Part III: Recitative: Where am I?"
PERFORMER "Handel"
ISRC HKI199804329
INDEX 01 61:12:37
TRACK 30 AUDIO
TITLE "Athalia: Part III: Aria: Hark! Hark!"
PERFORMER "Handel"
ISRC HKI199804330
INDEX 01 61:59:25
TRACK 31 AUDIO
TITLE "Athalia: Part III: Recitative: Yes, proud apostate"
PERFORMER "Handel"
ISRC HKI199804330
INDEX 01 63:50:45
TRACK 32 AUDIO
TITLE "Athalia: Part III: Aria: To darkness eternal"
PERFORMER "Handel"
ISRC HKI199804332
INDEX 01 64:43:07
TRACK 33 AUDIO
TITLE "Athalia: Part III: Recitative: Now, Josabeth"
PERFORMER "Handel"
ISRC HKI199804333
INDEX 01 65:41:72
TRACK 34 AUDIO
TITLE "Athalia: Part III: Duet: Joys, in gentle trains"
PERFORMER "Handel"
ISRC HKI199804334
INDEX 01 65:59:67
TRACK 35 AUDIO
TITLE "Athalia: Part III: Recitative: Rejoice, oh Judah"
PERFORMER "Handel"
ISRC HKI199804334
INDEX 01 68:10:25
TRACK 36 AUDIO
TITLE "Athalia: Part III: Chorus: Give the glory"
PERFORMER "Handel"
ISRC HKI199804336
INDEX 01 68:35:17
[teatrix.ru].t7907.torrent 
Торрент: Зарегистрирован [ 2015-10-14 02:42 ] · 715738C07A4523EEC6EFBBD336B8EAF922FC3446

Скачать .torrent

Скачать

12 KB

Статус: проверено
Скачан: 2 раз
Размер: 534 MB
terms.php



Быстрый ответ

Имя:

      
Для отправки сообщений необходимо включить JavaScript
Показать сообщения:    

Текущее время: 07-Дек 15:35

Часовой пояс: UTC + 3


Вы можете начинать темы
Вы можете отвечать на сообщения
Вы не можете редактировать свои сообщения
Вы не можете удалять свои сообщения
Вы не можете голосовать в опросах
Вы не можете прикреплять файлы к сообщениям
Вы можете скачивать файлы