(Classical) Marcus Teller - Motetta brevia de tempore - Studium Chorale, Hans Leenders - 2011, FLAC (image+.cue) lossless


Статистика раздачи [Обновить пиров]
Размер:  261 MB   |    Зарегистрирован:  1 год 1 месяц   |    Скачан:  0 раз

Полного источника не было: Никогда

 
   
 
 
 

[Цитировать]

Marcus Teller - Motetta brevia de tempore - Studium Chorale, Hans Leenders
Жанр: Classical
Год издания диска: 2011
Издатель (лейбл): Aliud Records
Номер по каталогу: ADC BB 057-2
Дата записи: 2011
Аудиокодек: FLAC
Тип рипа: image+.cue
Битрейт аудио: lossless
Продолжительность: 51:49
Источник: собственный рип
Наличие сканов в содержимом раздачи: да
Треклист:
Marcus Teller (1682-1728)
IX motetta brevia de tempore 1726
[1] Si qua est consolatio
[2] Confitemini Domino
[3] Exurgat Deus
[4] Insurrexerunt in nos inimici nostri
[5] O Jesu lux
[6] State sistite
[7] Sonent citharae
[8] O benigne Salvator
[9] O Domine illumina
Исполнители:
Studium Chorale
Hans Leenders
conductor

Лог создания рипа

Exact Audio Copy V1.0 beta 3 from 29. August 2011
EAC extraction logfile from 29. July 2014, 18:21
Studium Chorale, Hans Leenders / Marcus Teller - Motteta brevia de tempore
Used drive : HL-DT-STDVDRRW GWA-4164B Adapter: 5 ID: 0
Read mode : SecureUtilize accurate stream : YesDefeat audio cache : YesMake use of C2 pointers : No
Read offset correction : 102Overread into Lead-In and Lead-Out : NoFill up missing offset samples with silence : YesDelete leading and trailing silent blocks : NoNull samples used in CRC calculations : YesUsed interface : Native Win32 interface for Win NT & 2000
Used output format : User Defined EncoderSelected bitrate : 896 kBit/sQuality : HighAdd ID3 tag : NoCommand line compressor : C:\Program Files\Exact Audio Copy\FLAC\FLAC.EXEAdditional command line options : -V -8 %source%
TOC of the extracted CD
Track | Start | Length | Start sector | End sector --------------------------------------------------------- 1 | 0:00.00 | 6:32.03 | 0 | 29402 2 | 6:32.03 | 5:39.13 | 29403 | 54840 3 | 12:11.16 | 5:26.36 | 54841 | 79326 4 | 17:37.52 | 5:35.19 | 79327 | 104470 5 | 23:12.71 | 5:38.13 | 104471 | 129833 6 | 28:51.09 | 4:42.08 | 129834 | 150991 7 | 33:33.17 | 6:13.10 | 150992 | 178976 8 | 39:46.27 | 5:54.32 | 178977 | 205558 9 | 45:40.59 | 6:08.72 | 205559 | 233230
Range status and errors
Selected range
Filename D:\temp\Music\Marcus Teller - Motetta brevia de tempore\Marcus Teller - Motteta brevia de tempore.wav
Peak level 88.0 % Extraction speed 1.9 X Range quality 99.9 % Test CRC 4F894262 Copy CRC 4F894262 Copy OK
No errors occurred
AccurateRip summary
Track 1 not present in databaseTrack 2 not present in databaseTrack 3 not present in databaseTrack 4 not present in databaseTrack 5 not present in databaseTrack 6 not present in databaseTrack 7 not present in databaseTrack 8 not present in databaseTrack 9 not present in database
None of the tracks are present in the AccurateRip database
End of status report
==== Log checksum 71BC8A9F67DA3C5CB26F464AC9A58A211342F4D388958AFE82381E8C1FF5E0D0 ====
[teatrix.ru].t7908.torrent 
Торрент: Зарегистрирован [ 2015-10-14 02:42 ] · 5C54CED8570718873793A2D93F3BC6639E52FE6D

Скачать .torrent

Скачать

22 KB

Статус: проверено
Скачан: 0 раз
Размер: 261 MB
terms.php



Быстрый ответ

Имя:

      
Для отправки сообщений необходимо включить JavaScript
Показать сообщения:    

Текущее время: 04-Дек 15:11

Часовой пояс: UTC + 3


Вы можете начинать темы
Вы можете отвечать на сообщения
Вы не можете редактировать свои сообщения
Вы не можете удалять свои сообщения
Вы не можете голосовать в опросах
Вы не можете прикреплять файлы к сообщениям
Вы можете скачивать файлы