(Sacred, Mass) Giovanni Pierluigi da Palestrina - Missa Assumpta est Maria, Missa Papae Marcelli (Pro Cantione Antiqua, Mark Brown) - 2000, FLAC (image+.cue) lossless


Статистика раздачи [Обновить пиров]
Размер:  302 MB   |    Зарегистрирован:  1 год 1 месяц   |    Скачан:  0 раз

Полного источника не было: Никогда

 
   
 
 
 

[Цитировать]

Giovanni Pierluigi da Palestrina - Missa Assumpta est Maria, Missa Papae Marcelli
Pro Cantione Antiqua, Mark Brown
Жанр: Sacred, Choral
Страна-производитель диска: Germany
Год издания диска: 2000
Издатель (лейбл): Regis
Номер по каталогу: RRC1025
Дата записи: 1988
Аудиокодек: FLAC
Тип рипа: image+.cue
Битрейт аудио: lossless
Продолжительность: 1:11:56
Источник: собственный рип
Наличие сканов в содержимом раздачи: да
Треклист:
1. Gaudeamus omnes in Domino (Gregorian chant) 4:03
2. Missa Assumpta est Maria: Kyrie 4:24
3. Gloria 4:39
4. Gradual: Propter Veritatem 3:11
5. Credo 7:04
6. Assumpta est Maria 1:13
7. Sanctus 2:19
8. Benedictus 2:26
9. Optimum Partem 0:49
10. Agnus Dei 4:54
11. Missa Papae Marcelli: Kyrie 5:01
12. Gloria 6:22
13. Credo 9:46
14. Sanctus 4:00
15. Benedictus 3:24
16. Agnus Dei I-II 8:21
Исполнители:
Pro Cantione Antiqua
Mark Brown - conductor

Лог создания рипа

Exact Audio Copy V1.0 beta 2 from 29. April 2011
EAC extraction logfile from 23. September 2014, 20:48
Mark Brown / Pro Cantione Antiqua / Missa Assumpta est Maria / Missa Papae Marcelli
Used drive : _NEC DVD_RW ND-3551A Adapter: 0 ID: 0
Read mode : SecureUtilize accurate stream : YesDefeat audio cache : YesMake use of C2 pointers : No
Read offset correction : 48Overread into Lead-In and Lead-Out : NoFill up missing offset samples with silence : YesDelete leading and trailing silent blocks : NoNull samples used in CRC calculations : YesUsed interface : Native Win32 interface for Win NT & 2000
Used output format : User Defined EncoderSelected bitrate : 128 kBit/sQuality : HighAdd ID3 tag : NoCommand line compressor : D:\Program Files\Exact Audio Copy\Flac\flac.exeAdditional command line options : -V -8 -T "Date=%year%" -T "Genre=%genre%" %source%
TOC of the extracted CD
Track | Start | Length | Start sector | End sector --------------------------------------------------------- 1 | 0:00.00 | 4:03.12 | 0 | 18236 2 | 4:03.12 | 4:23.44 | 18237 | 38005 3 | 8:26.56 | 4:39.08 | 38006 | 58938 4 | 13:05.64 | 3:11.04 | 58939 | 73267 5 | 16:16.68 | 7:04.07 | 73268 | 105074 6 | 23:21.00 | 1:12.47 | 105075 | 110521 7 | 24:33.47 | 2:18.67 | 110522 | 120938 8 | 26:52.39 | 2:26.19 | 120939 | 131907 9 | 29:18.58 | 0:49.24 | 131908 | 135606 10 | 30:08.07 | 4:54.16 | 135607 | 157672 11 | 35:02.23 | 5:00.63 | 157673 | 180235 12 | 40:03.11 | 6:21.62 | 180236 | 208872 13 | 46:24.73 | 9:46.06 | 208873 | 252828 14 | 56:11.04 | 3:59.47 | 252829 | 270800 15 | 60:10.51 | 3:24.20 | 270801 | 286120 16 | 63:34.71 | 8:21.14 | 286121 | 323709
Range status and errors
Selected range
Filename C:\RIP\Palestrina - Masses (Brown).wav
Peak level 81.1 % Extraction speed 2.7 X Range quality 100.0 % Test CRC 84B82F3A Copy CRC 84B82F3A Copy OK
No errors occurred
AccurateRip summary
Track 1 accurately ripped (confidence 4) [64712C99] (AR v2)Track 2 accurately ripped (confidence 4) [C39063FA] (AR v2)Track 3 accurately ripped (confidence 4) [3D08C6E3] (AR v2)Track 4 accurately ripped (confidence 4) [BD5A9E7E] (AR v2)Track 5 accurately ripped (confidence 4) [C4D25E96] (AR v2)Track 6 accurately ripped (confidence 4) [89969221] (AR v2)Track 7 accurately ripped (confidence 4) [FFC6C2BC] (AR v2)Track 8 accurately ripped (confidence 4) [BD23A80C] (AR v2)Track 9 accurately ripped (confidence 4) [D2514FFF] (AR v2)Track 10 accurately ripped (confidence 4) [C66D2A7D] (AR v2)Track 11 accurately ripped (confidence 4) [B5F29F0B] (AR v2)Track 12 accurately ripped (confidence 3) [60DEDDB4] (AR v2)Track 13 accurately ripped (confidence 4) [2CED9E1C] (AR v2)Track 14 accurately ripped (confidence 4) [00D50B47] (AR v2)Track 15 accurately ripped (confidence 4) [53F8CF69] (AR v2)Track 16 accurately ripped (confidence 4) [B4EB55F9] (AR v2)
All tracks accurately ripped
End of status report
==== Log checksum FD1A79FD94E0A6DD6DA8319EBB1773C9FA659394EA37050D36A0829EE04C74BD ====
[teatrix.ru].t7909.torrent 
Торрент: Зарегистрирован [ 2015-10-14 02:42 ] · 3241676A7ABEB0D99B5257ED2FB45390B239DC09

Скачать .torrent

Скачать

13 KB

Статус: проверено
Скачан: 0 раз
Размер: 302 MB
terms.php



Быстрый ответ

Имя:

      
Для отправки сообщений необходимо включить JavaScript
Показать сообщения:    

Текущее время: 09-Дек 08:53

Часовой пояс: UTC + 3


Вы можете начинать темы
Вы можете отвечать на сообщения
Вы не можете редактировать свои сообщения
Вы не можете удалять свои сообщения
Вы не можете голосовать в опросах
Вы не можете прикреплять файлы к сообщениям
Вы можете скачивать файлы