(Classical) Владимир Мартынов - Плач пророка Иеремии - Ансамбль «Сирин», Андрей Котов - 2013, FLAC (image+.cue) lossless


Статистика раздачи [Обновить пиров]
Размер:  351 MB   |    Зарегистрирован:  1 год 1 месяц   |    Скачан:  1 раз

Полного источника не было: 4 месяца 5 дней

 
   
 
 
 

[Цитировать]

Владимир Мартынов - Плач пророка Иеремии - Ансамбль «Сирин», Андрей Котов
Жанр: Classical
Год издания диска: 2013
Издатель (лейбл): Brilliant Classics
Номер по каталогу: 9403
Дата записи: 1997
Аудиокодек: FLAC
Тип рипа: image+.cue
Битрейт аудио: lossless
Продолжительность: 77:12
Источник: собственный рип
Наличие сканов в содержимом раздачи: да
Треклист:
Владимир Мартынов (1946)
[1]-[9] Плач пророка Иеремии
Исполнители:
Ансамбль «Сирин»
Андрей Котов

Лог создания рипа

Exact Audio Copy V1.0 beta 3 from 29. August 2011
EAC extraction logfile from 17. July 2014, 14:57
The Sirin Choir, Andrey Kotov / Martynov - Lamentations of Jeremiah
Used drive : HL-DT-STDVDRRW GWA-4164B Adapter: 5 ID: 0
Read mode : SecureUtilize accurate stream : YesDefeat audio cache : YesMake use of C2 pointers : No
Read offset correction : 102Overread into Lead-In and Lead-Out : NoFill up missing offset samples with silence : YesDelete leading and trailing silent blocks : NoNull samples used in CRC calculations : YesUsed interface : Native Win32 interface for Win NT & 2000
Used output format : User Defined EncoderSelected bitrate : 896 kBit/sQuality : HighAdd ID3 tag : NoCommand line compressor : C:\Program Files\Exact Audio Copy\FLAC\FLAC.EXEAdditional command line options : -V -8 %source%
TOC of the extracted CD
Track | Start | Length | Start sector | End sector --------------------------------------------------------- 1 | 0:00.00 | 2:25.34 | 0 | 10908 2 | 2:25.34 | 15:01.20 | 10909 | 78503 3 | 17:26.54 | 2:28.36 | 78504 | 89639 4 | 19:55.15 | 22:52.57 | 89640 | 192596 5 | 42:47.72 | 2:25.60 | 192597 | 203531 6 | 45:13.57 | 12:40.25 | 203532 | 260556 7 | 57:54.07 | 2:43.10 | 260557 | 272791 8 | 60:37.17 | 4:24.65 | 272792 | 292656 9 | 65:02.07 | 12:10.23 | 292657 | 347429
Range status and errors
Selected range
Filename D:\temp\Music\Martynov - Lamentations of Jeremiah\Martynov - Lamentations of Jeremiah.wav
Peak level 97.2 % Extraction speed 3.1 X Range quality 99.9 % Test CRC 5D25BE54 Copy CRC 5D25BE54 Copy OK
No errors occurred
AccurateRip summary
Track 1 not present in databaseTrack 2 not present in databaseTrack 3 not present in databaseTrack 4 not present in databaseTrack 5 not present in databaseTrack 6 not present in databaseTrack 7 not present in databaseTrack 8 not present in databaseTrack 9 not present in database
None of the tracks are present in the AccurateRip database
End of status report
==== Log checksum A4DA89306D19A9ECCB902BB1CBC93DFD427BB0C2108722102114EF22AFE82DAD ====
[teatrix.ru].t7910.torrent 
Торрент: Зарегистрирован [ 2015-10-14 02:42 ] · DFC30AF04B8DE245447DAD6940DF94600AA858DA

Скачать .torrent

Скачать

29 KB

Статус: проверено
Скачан: 1 раз
Размер: 351 MB
terms.php



Быстрый ответ

Имя:

      
Для отправки сообщений необходимо включить JavaScript
Показать сообщения:    

Текущее время: 03-Дек 16:44

Часовой пояс: UTC + 3


Вы можете начинать темы
Вы можете отвечать на сообщения
Вы не можете редактировать свои сообщения
Вы не можете удалять свои сообщения
Вы не можете голосовать в опросах
Вы не можете прикреплять файлы к сообщениям
Вы можете скачивать файлы