(Classical) Where Late the Sweet Birds Sang: Robert Parsons, Robert White, William Byrd - Latin Music from Tudor England - Magnificat, Philip Cave - 2012, FLAC (image+.cue) lossless


Статистика раздачи [Обновить пиров]
Размер:  309 MB   |    Зарегистрирован:  1 год 1 месяц   |    Скачан:  1 раз

Полного источника не было: 4 месяца 9 дней

 
   
 
 
 

[Цитировать]

Where Late the Sweet Birds Sang: Robert Parsons, Robert White, William Byrd - Magnificat, Philip Cave
Жанр: Classical
Страна-производитель диска: UK
Год издания диска: 2012
Издатель (лейбл): Linn Records
Номер по каталогу: CKD 417
Дата записи: 2012
Аудиокодек: FLAC
Тип рипа: image+.cue
Битрейт аудио: lossless
Продолжительность: 75:31
Источник: собственный рип
Наличие сканов в содержимом раздачи: да
Треклист:
Latin Music from Tudor England
[1] William Byrd (c.1540-1623): Christe qui lux es et dies
[2] Robert White (c.1538-1574): Lamentations for Five Voices
[3] Robert Parsons (c.1535-1572): Ave Maria
[4] William Byrd: Domine, quis habitabit
[5] Robert Parsons: Domine, quis habitabit
[6] William Byrd: Quomodo cantabimus
[7] William Byrd: De Lamentatione
[8] Robert White: Christe qui lux es et dies (IV)
Исполнители:
Magnificat
directed by
Philip Cave

Лог создания рипа

Exact Audio Copy V1.0 beta 3 from 29. August 2011
EAC extraction logfile from 18. July 2014, 2:23
Magnificat, Philip Cave / Where Late the Sweet Birds Sang - Latin Music from Tudor England
Used drive : HL-DT-STDVDRAM GU70N Adapter: 0 ID: 0
Read mode : SecureUtilize accurate stream : YesDefeat audio cache : YesMake use of C2 pointers : No
Read offset correction : 48Overread into Lead-In and Lead-Out : NoFill up missing offset samples with silence : YesDelete leading and trailing silent blocks : NoNull samples used in CRC calculations : YesUsed interface : Native Win32 interface for Win NT & 2000
Used output format : User Defined EncoderSelected bitrate : 128 kBit/sQuality : HighAdd ID3 tag : NoCommand line compressor : C:\Program Files (x86)\Exact Audio Copy\Flac\flac.exeAdditional command line options : -V -8 -T "Date=%year%" -T "Genre=%genre%" %source%
TOC of the extracted CD
Track | Start | Length | Start sector | End sector --------------------------------------------------------- 1 | 0:00.00 | 5:11.48 | 0 | 23372 2 | 5:11.48 | 22:55.59 | 23373 | 126556 3 | 28:07.32 | 4:56.64 | 126557 | 148820 4 | 33:04.21 | 9:36.55 | 148821 | 192075 5 | 42:41.01 | 4:43.36 | 192076 | 213336 6 | 47:24.37 | 8:41.70 | 213337 | 252481 7 | 56:06.32 | 12:32.22 | 252482 | 308903 8 | 68:38.54 | 6:50.20 | 308904 | 339673
Range status and errors
Selected range
Filename C:\temp\Where Late the Sweet Birds Sang\Where Late the Sweet Birds Sang.wav
Peak level 92.9 % Extraction speed 2.3 X Range quality 100.0 % Test CRC 26DB7B1A Copy CRC 26DB7B1A Copy OK
No errors occurred
AccurateRip summary
Track 1 accurately ripped (confidence 1) [3165E2EF] (AR v2)Track 2 accurately ripped (confidence 1) [3E60BBC1] (AR v2)Track 3 accurately ripped (confidence 1) [71536048] (AR v2)Track 4 accurately ripped (confidence 1) [8B985375] (AR v2)Track 5 accurately ripped (confidence 1) [3935549B] (AR v2)Track 6 accurately ripped (confidence 1) [DAD3A1FC] (AR v2)Track 7 accurately ripped (confidence 1) [29DAA117] (AR v2)Track 8 accurately ripped (confidence 1) [7E5F2FA1] (AR v2)
All tracks accurately ripped
End of status report
==== Log checksum 925C92E3DB33905A078BA530A4F49387387BA73FF235753983B022134732B438 ====
[teatrix.ru].t7911.torrent 
Торрент: Зарегистрирован [ 2015-10-14 02:42 ] · 9F10EB506FC1F0B13D2281344435956A5F451739

Скачать .torrent

Скачать

25 KB

Статус: проверено
Скачан: 1 раз
Размер: 309 MB
terms.php



Быстрый ответ

Имя:

      
Для отправки сообщений необходимо включить JavaScript
Показать сообщения:    

Текущее время: 05-Дек 23:34

Часовой пояс: UTC + 3


Вы можете начинать темы
Вы можете отвечать на сообщения
Вы не можете редактировать свои сообщения
Вы не можете удалять свои сообщения
Вы не можете голосовать в опросах
Вы не можете прикреплять файлы к сообщениям
Вы можете скачивать файлы