(Classical) Чайковский – Литургия, четыре хора («Легенда», Да исправится, Отче наш, Ангел вопияше) / Tchaikovsky – Liturgy & four choruses (Виктор Попов / Popov) - 1994, FLAC (image+.cue) lossless


Статистика раздачи [Обновить пиров]
Размер:  213 MB   |    Зарегистрирован:  1 год 1 месяц   |    Скачан:  0 раз

Полного источника не было: Никогда

 
   
 
 
 

[Цитировать]

Чайковский – Литургия, четыре хора («Легенда», Да исправится, Отче наш, Ангел вопияше) / Tchaikovsky – Liturgy & four choruses (Виктор Попов / Popov)
Жанр: Classical
Страна-производитель диска: Германия
Год издания диска: 1994
Издатель (лейбл): Saison Russe (Le Chant du Monde & harmonia mundi)
Номер по каталогу: RUS 288096
Дата записи: январь 1994 г., Москва.
Аудиокодек: FLAC
Тип рипа: image+.cue
Битрейт аудио: lossless
Продолжительность: 00:59:32
Источник: odeonmusic
Наличие сканов в содержимом раздачи: да
Треклист:
Петр Ильич Чайковский (1840 — 1893).
Литургия Св. Иоанна Златоуста для четырехголосного смешанного хора, op. 41 (1878).
01. № 1. [Великая ектения.] После возглашения: «Благословенно Царство» и проч. С умеренной скоростью [04:00].
02. № 2. После первого антифона. С умеренной скоростью. [Вырезано.] — Умеренно. — [Купюра] [05:47].
03. № 3. После малого входа. Довольно медленно. — Умеренно. — Довольно медленно [04:10].
04. № 6. Херувимская песнь. Медленно. — Скоро [07:30].
05. № 8. Символ веры. Довольно скоро [04:00].
06. № 9. После Символа веры. Довольно скоро. — Скоро. — [Купюра.] Медленно [03:00].
07. № 10. После возглашения: «Твоя отъ твоихъ» и проч. Довольно медленно [02:50].
08. № 11. После слов: «Изрядно о Пресвятѣй» и проч. Медленно. — [Купюра] [03:05].
09. № 13. Молитва Господня. Умеренно. — [Купюра] [03:20].
10. № 14. Причастный стих. Довольно скоро [01:55].
11. № 15. После возглашения: «Со страхомъ Божіимъ» и проч. Скоро. — Та же скорость. — Та же скорость. — [Купюра.] — Умеренно. — [Купюра.] — [Завершение] [04:05].
Шестнадцать песен для детей [с фортепиано], op. 54 (1883).
№ 5 e-moll. Легенда (А.Н. Плещеев [с английского, Р.Г. Стоддард]), оригинальное переложение для четырехголосного смешанного хора, TH 85 (1889).
12. Moderato [02:50].
Девять духовно-музыкальных сочинений для смешанного хора, TH 78 (1884 — 1885).
13. № 8 d-moll. Да исправится (Трио [SSA] с хором). Стих I. Медленно. — Хор. Оживленно. — Стих II. — Хор. — Стих III. — Хор. — Стих IV. — Хор [08:50].
14. № 6 F-dur. Отче наш. Довольно живо. — Медленнее. — Оживленнее [04:40].
«Ангелъ вопіяше» G-dur для смешанного хора, TH 81 (1887).
15. Очень умеренно. — Очень медленно [03:15].
Исполнители:
Смешанный хор из мальчиков и мужчин Академии хорового искусства [им. В.С. Попова].
Дирижер Виктор Попов.

Лог создания рипа

Exact Audio Copy V1.0 beta 3 from 29. August 2011
EAC extraction logfile from 1. May 2013, 11:13
Moscow Choral Academy / Tchaikovsky - Liturgy of St John Chrysostom - Viktor Popov
Used drive : TSSTcorpCDDVDW SH-222BB Adapter: 2 ID: 1
Read mode : SecureUtilize accurate stream : YesDefeat audio cache : YesMake use of C2 pointers : No
Read offset correction : 6Overread into Lead-In and Lead-Out : NoFill up missing offset samples with silence : YesDelete leading and trailing silent blocks : NoNull samples used in CRC calculations : YesUsed interface : Native Win32 interface for Win NT & 2000
Used output format : User Defined EncoderSelected bitrate : 1024 kBit/sQuality : HighAdd ID3 tag : NoCommand line compressor : C:\Program Files\Exact Audio Copy\Flac\flac.exeAdditional command line options : -8 -V -T "TITLE=%title%" -T "ARTIST=%artist%" -T "ALBUMARTIST=%albumartist%" -T "ALBUM=%albumtitle%" -T "DATE=%year%" -T "TRACKNUMBER=%tracknr%" -T "TRACKTOTAL=%numtracks%" -T "GENRE=%genre%" -T "COMMENT=%comment%" -T "PERFORMER=%albuminterpret%" -T "COMPOSER=%composer%" %source% -o %dest%
TOC of the extracted CD
Track | Start | Length | Start sector | End sector --------------------------------------------------------- 1 | 0:00.32 | 4:02.00 | 32 | 18181 2 | 4:02.32 | 1:58.73 | 18182 | 27104 3 | 6:01.30 | 4:12.00 | 27105 | 46004 4 | 10:13.30 | 7:31.15 | 46005 | 79844 5 | 17:44.45 | 4:00.05 | 79845 | 97849 6 | 21:44.50 | 3:01.45 | 97850 | 111469 7 | 24:46.20 | 2:49.20 | 111470 | 124164 8 | 27:35.40 | 3:04.32 | 124165 | 137996 9 | 30:39.72 | 3:17.25 | 137997 | 152796 10 | 33:57.22 | 1:56.18 | 152797 | 161514 11 | 35:53.40 | 4:04.65 | 161515 | 179879 12 | 39:58.30 | 2:53.37 | 179880 | 192891 13 | 42:51.67 | 8:51.60 | 192892 | 232776 14 | 51:43.52 | 4:35.23 | 232777 | 253424 15 | 56:19.00 | 3:14.10 | 253425 | 267984
Range status and errors
Selected range
Filename G:\Ripped general\[1969] Tchaikovsky – Liturgy of St John Chrysostom – Viktor Popov\Tchaikovsky - Liturgy of St John Chrysostom - Viktor Popov.wav
Peak level 100.0 % Extraction speed 2.3 X Range quality 100.0 % Test CRC 1AD77CF8 Copy CRC 1AD77CF8 Copy OK
No errors occurred
AccurateRip summary
Track 1 not present in databaseTrack 2 not present in databaseTrack 3 not present in databaseTrack 4 not present in databaseTrack 5 not present in databaseTrack 6 not present in databaseTrack 7 not present in databaseTrack 8 not present in databaseTrack 9 not present in databaseTrack 10 not present in databaseTrack 11 not present in databaseTrack 12 not present in databaseTrack 13 not present in databaseTrack 14 not present in databaseTrack 15 not present in database
None of the tracks are present in the AccurateRip database
End of status report

Содержание индексной карты (.CUE)

REM GENRE ClassicalREM DISCID BB0DF50FREM COMMENT "ExactAudioCopy v1.0b3"PERFORMER "Moscow Choral Academy & Viktor Popov"TITLE "Tchaikovsky – Liturgy of St. John Chrysostom – Viktor Popov"FILE "Tchaikovsky – Liturgy of St. John Chrysostom – Viktor Popov.flac" WAVE TRACK 01 AUDIO TITLE "Liturgy, Op. 41 - No. 1. Great Litany" PERFORMER "Moscow Choral Academy & Viktor Popov" INDEX 00 00:00:00 INDEX 01 00:00:32 TRACK 02 AUDIO TITLE "Liturgy, Op. 41 - No. 2. Glory to the Father and to the Son" PERFORMER "Moscow Choral Academy & Viktor Popov" INDEX 00 03:59:37 INDEX 01 04:02:32 TRACK 03 AUDIO TITLE "Liturgy, Op. 41 - No. 3. Come, let us bow" PERFORMER "Moscow Choral Academy & Viktor Popov" INDEX 00 05:58:17 INDEX 01 06:01:30 TRACK 04 AUDIO TITLE "Liturgy, Op. 41 - No. 6. Cherubic Song" PERFORMER "Moscow Choral Academy & Viktor Popov" INDEX 00 10:09:50 INDEX 01 10:13:30 TRACK 05 AUDIO TITLE "Liturgy, Op. 41 - No. 8. Credo" PERFORMER "Moscow Choral Academy & Viktor Popov" INDEX 00 17:41:12 INDEX 01 17:44:45 TRACK 06 AUDIO TITLE "Liturgy, Op. 41 - No. 9. The grace of peace" PERFORMER "Moscow Choral Academy & Viktor Popov" INDEX 00 21:40:57 INDEX 01 21:44:50 TRACK 07 AUDIO TITLE "Liturgy, Op. 41 - No. 10. We sing unto Thee" PERFORMER "Moscow Choral Academy & Viktor Popov" INDEX 00 24:43:55 INDEX 01 24:46:20 TRACK 08 AUDIO TITLE "Liturgy, Op. 41 - No. 11. It is worthy praise Thee" PERFORMER "Moscow Choral Academy & Viktor Popov" INDEX 00 27:31:72 INDEX 01 27:35:40 TRACK 09 AUDIO TITLE "Liturgy, Op. 41 - No. 13. Pater Noster" PERFORMER "Moscow Choral Academy & Viktor Popov" INDEX 00 30:36:22 INDEX 01 30:39:72 TRACK 10 AUDIO TITLE "Liturgy, Op. 41 - No. 14. Praise the Lord" PERFORMER "Moscow Choral Academy & Viktor Popov" INDEX 00 33:54:55 INDEX 01 33:57:22 TRACK 11 AUDIO TITLE "Liturgy, Op. 41 - No. 15. Praised is he who comes" PERFORMER "Moscow Choral Academy & Viktor Popov" INDEX 00 35:49:65 INDEX 01 35:53:40 TRACK 12 AUDIO TITLE "Legende, TH 85, transcribed from Op. 54 No. 5" PERFORMER "Moscow Choral Academy & Viktor Popov" INDEX 00 39:53:47 INDEX 01 39:58:30 TRACK 13 AUDIO TITLE "Nine Sacred Pieces, TH 78 - No. 8. May My Prayer Rise to Thee" PERFORMER "Moscow Choral Academy & Viktor Popov" INDEX 00 42:48:37 INDEX 01 42:51:67 TRACK 14 AUDIO TITLE "Nine Sacred Pieces, TH 78 - No. 6. Pater Noster" PERFORMER "Moscow Choral Academy & Viktor Popov" INDEX 00 51:39:40 INDEX 01 51:43:52 TRACK 15 AUDIO TITLE "The Angel Said, TH 81" PERFORMER "Moscow Choral Academy & Viktor Popov" INDEX 00 56:15:22 INDEX 01 56:19:00

-

Russian Religious Singing Through the Ages

«Русское духовное пение через века» — восьмидисковой проект лейбла Saison Russe. Впервые диски вышли в 1994 — 1995 гг., затем, в 1995 же году, были изданы двумя четырехдисковыми коробками.
Содержание дисков следующее:
Диск I. Ранние одноголосные и многоголосные песнопения (Анатолий Гридненко, Андрей Котов).
Диск II. Сто пятьдесят лет полифонии: XVII — XIX века (Виктор Попов, Станислав Гусев).
Диск III. От Глинки до Рахманинова: русские композиторы и духовная музыка (Виктор Попов, Валерий Рыбин, Владислав Новик, Владислав Чернушенко).
Диск IV. Чайковский: Литургия Св. Иоанна Златоуста; хоры (Виктор Попов).
Диск V. Возрождение начала XX века: Кастальский (Валерий Рыбин, Владислав Новик, Андрей Заборонок).
Диск VI. Возрождение начала XX века: Чесноков (Виктор Попов, Валерий Рыбин, Владислав Новик).
Диск VII. Заупокойная служба (Владислав Новик).
Диск VIII. Литургия Светлой седмицы (Владислав Новик).-Russian Religious Singing Through the Ages (1994 — 1995)
[RUS 288 093] Volume I. Early monodic and polyphonic chants.
[RUS 288 094] Volume II. 150 years of polyphony: 17th — 19th centuries.
[RUS 288 095] Volume III. From Glinka to Rachmaninov: Russian composers and religious music.
[RUS 288 096] Volume IV. Tchaikovski: Liturgy of St. John Chrysostom; choruses.
[RUS 288 097] Volume V. The Early 20th century revival: Kastalsky.
[RUS 288 098] Volume VI. The Early 20th century revival: Tchesnokov.
[RUS 288 099] Volume VII. Orthodox Requiem.
[RUS 288 100] Volume VIII. The Liturgy of Orthodox Holy Week.
[CMX 388 051] Russian Religious Singing Through the Ages. Volume I (CDs 1 — 4).
[CMX 388 052] Russian Religious Singing Through the Ages. Volume II (CDs 5 — 8).-Некоторые треки со второго, третьего и шестого дисков содержатся на четвертом и шестом этой lossy раздачи (выпущенных ранее):
(1991) [RUS 288 041] 18th Century Russian Religious Choruses — Русская духовная хоровая музыка XVIII века (Станислав Гусев).
(1993) [RUS 288 066] 300 Years Of Russian Religious Chants — Триста лет русского духовного пения (Виктор Попов).
[teatrix.ru].t7912.torrent 
Торрент: Зарегистрирован [ 2015-10-14 02:42 ] · C3435921B7D86B7545A764E41BE3E705EC8C5924

Скачать .torrent

Скачать

18 KB

Статус: проверено
Скачан: 0 раз
Размер: 213 MB
terms.php



Быстрый ответ

Имя:

      
Для отправки сообщений необходимо включить JavaScript
Показать сообщения:    

Текущее время: 07-Дек 23:21

Часовой пояс: UTC + 3


Вы можете начинать темы
Вы можете отвечать на сообщения
Вы не можете редактировать свои сообщения
Вы не можете удалять свои сообщения
Вы не можете голосовать в опросах
Вы не можете прикреплять файлы к сообщениям
Вы можете скачивать файлы