(Classical, sacred) Voices - Chant from Avignon - The Benedictine Nuns of Notre-Dame de l\'Annonciation - 2010, FLAC (image+.cue) lossless


Статистика раздачи [Обновить пиров]
Размер:  301 MB   |    Зарегистрирован:  1 год 1 месяц   |    Скачан:  0 раз

Полного источника не было: Никогда

 
   
 
 
 

[Цитировать]

Voices - Chant from Avignon - The Benedictine Nuns of Notre-Dame de l'Annonciation
Жанр: Classical, sacred
Год издания диска: 2010
Издатель (лейбл): Decca
Дата записи: 2010
Аудиокодек: FLAC
Тип рипа: image+.cue
Битрейт аудио: lossless
Продолжительность: 67:34
Источник: собственный рип
Наличие сканов в содержимом раздачи: да
Треклист:
[1] Invitatory 'Surrexit Dominus' & Psalm 94
[2] Introit 'Exsurge'
[3] Lamentation 'Oratio Jeremiae'
[4] Annunciation Bells
[5] Sequence 'Dies irae'
[6] Tract 'Commovisti'
[7] Offertory 'Recordare'
[8] Alleluia 'Oportebat pati Christum'
[9] Alleluia 'Cognoverunt'
[10] Communion 'Panis'
[11] Hymn 'Adoro te'
[12] Introit 'Esto mihi'
[13] Offertory 'In te speravi'
[14] Sequence 'Veni Sancte Spiritus'
[15] Antiphon 'Ubi caritas'
[16] Antiphon 'Nonne cor' & 'Magnificat'
[17] Response 'Regnum mundi'
[18] Gradual 'Christus'
[19] Offertory 'Dextera Domini'
[20] Antiphon 'Alleluia' & Psalm 116
[21] Hymn 'Benedictus es'
[22] Annunciation Peal of Bells
Исполнители:
The Benedictine Nuns of Notre-Dame de l'Annonciation

Лог создания рипа

Exact Audio Copy V1.0 beta 3 from 29. August 2011
EAC extraction logfile from 9. July 2014, 16:11
The Benedictine Nuns of Notre-Dame de l'Annonciation / Voices - Chant from Avignon
Used drive : HL-DT-STDVDRRW GWA-4164B Adapter: 5 ID: 0
Read mode : SecureUtilize accurate stream : YesDefeat audio cache : YesMake use of C2 pointers : No
Read offset correction : 102Overread into Lead-In and Lead-Out : NoFill up missing offset samples with silence : YesDelete leading and trailing silent blocks : NoNull samples used in CRC calculations : YesUsed interface : Native Win32 interface for Win NT & 2000
Used output format : User Defined EncoderSelected bitrate : 896 kBit/sQuality : HighAdd ID3 tag : NoCommand line compressor : C:\Program Files\Exact Audio Copy\FLAC\FLAC.EXEAdditional command line options : -V -8 %source%
TOC of the extracted CD
Track | Start | Length | Start sector | End sector --------------------------------------------------------- 1 | 0:00.00 | 6:26.47 | 0 | 28996 2 | 6:26.47 | 3:34.49 | 28997 | 45095 3 | 10:01.21 | 4:36.21 | 45096 | 65816 4 | 14:37.42 | 1:26.73 | 65817 | 72339 5 | 16:04.40 | 6:01.74 | 72340 | 99488 6 | 22:06.39 | 3:41.25 | 99489 | 116088 7 | 25:47.64 | 1:24.64 | 116089 | 122452 8 | 27:12.53 | 2:31.49 | 122453 | 133826 9 | 29:44.27 | 2:18.64 | 133827 | 144240 10 | 32:03.16 | 1:02.28 | 144241 | 148918 11 | 33:05.44 | 3:50.43 | 148919 | 166211 12 | 36:56.12 | 3:20.29 | 166212 | 181240 13 | 40:16.41 | 1:10.55 | 181241 | 186545 14 | 41:27.21 | 2:29.27 | 186546 | 197747 15 | 43:56.48 | 2:37.05 | 197748 | 209527 16 | 46:33.53 | 4:04.19 | 209528 | 227846 17 | 50:37.72 | 2:02.64 | 227847 | 237060 18 | 52:40.61 | 2:21.65 | 237061 | 247700 19 | 55:02.51 | 1:29.28 | 247701 | 254403 20 | 56:32.04 | 1:52.68 | 254404 | 262871 21 | 58:24.72 | 6:00.30 | 262872 | 289901 22 | 64:25.27 | 3:09.00 | 289902 | 304076
Range status and errors
Selected range
Filename D:\temp\Music\Voices - Chant from Avignon\Voices - Chant from Avignon.wav
Peak level 100.0 % Extraction speed 3.6 X Range quality 99.9 % Test CRC D391A36D Copy CRC D391A36D Copy OK
No errors occurred
AccurateRip summary
Track 1 accurately ripped (confidence 18) [3C7635A5] (AR v2)Track 2 accurately ripped (confidence 18) [E122CF6E] (AR v2)Track 3 accurately ripped (confidence 18) [FA9388B1] (AR v2)Track 4 accurately ripped (confidence 18) [299AED79] (AR v2)Track 5 accurately ripped (confidence 18) [4975E89E] (AR v2)Track 6 accurately ripped (confidence 18) [EC0BC21E] (AR v2)Track 7 accurately ripped (confidence 18) [A5D4C2CB] (AR v2)Track 8 accurately ripped (confidence 18) [AB189BA2] (AR v2)Track 9 accurately ripped (confidence 18) [6849830B] (AR v2)Track 10 accurately ripped (confidence 18) [905F667A] (AR v2)Track 11 accurately ripped (confidence 18) [6CA6DA75] (AR v2)Track 12 accurately ripped (confidence 18) [F39E2D78] (AR v2)Track 13 accurately ripped (confidence 18) [AA5D5417] (AR v2)Track 14 accurately ripped (confidence 18) [5836793E] (AR v2)Track 15 accurately ripped (confidence 18) [C09D4E15] (AR v2)Track 16 accurately ripped (confidence 18) [955AF89A] (AR v2)Track 17 accurately ripped (confidence 18) [1876ED57] (AR v2)Track 18 accurately ripped (confidence 18) [C7DBFB1C] (AR v2)Track 19 accurately ripped (confidence 18) [CB7C824B] (AR v2)Track 20 accurately ripped (confidence 18) [4D53B63C] (AR v2)Track 21 accurately ripped (confidence 18) [5A4B7D9A] (AR v2)Track 22 accurately ripped (confidence 18) [7B2755A8] (AR v2)
All tracks accurately ripped
End of status report
==== Log checksum 0C0940CA7E29E212A434BBB768DDCFF752B580EBB7A8919F92A625A1F68B4383 ====
[teatrix.ru].t7913.torrent 
Торрент: Зарегистрирован [ 2015-10-14 02:42 ] · 214096E1F34E45C681C62FF6908BCC3D87F1CBC0

Скачать .torrent

Скачать

25 KB

Статус: проверено
Скачан: 0 раз
Размер: 301 MB
terms.php



Быстрый ответ

Имя:

      
Для отправки сообщений необходимо включить JavaScript
Показать сообщения:    

Текущее время: 08-Дек 07:07

Часовой пояс: UTC + 3


Вы можете начинать темы
Вы можете отвечать на сообщения
Вы не можете редактировать свои сообщения
Вы не можете удалять свои сообщения
Вы не можете голосовать в опросах
Вы не можете прикреплять файлы к сообщениям
Вы можете скачивать файлы