(Classical) Римский-Корсаков – Стих об Алексее Божием человеке; Кантаты: «Свитезянка», «Песнь о вещем Олеге», «Из Гомера» (Федотова, Митракова, Сизова, Лухманова, Корчак, Диденко; Попов, Зива / Popov, Ziva) - 2002, FLAC (image+.cue) lossless


Статистика раздачи [Обновить пиров]
Размер:  243 MB   |    Зарегистрирован:  1 год 1 месяц   |    Скачан:  0 раз

Полного источника не было: Никогда

 
   
 
 
 

[Цитировать]

Римский-Корсаков – Стих об Алексее Божием человеке; Кантаты: «Свитезянка», «Песнь о вещем Олеге», «Из Гомера» / Rimsky-Korsakov – Secular Cantatas / Cantates Profanes (Федотова, Митракова, Сизова, Лухманова, Корчак, Диденко; Попов, Зива / Popov, Ziva)
Жанр: Classical
Страна-производитель диска: Германия
Год издания диска: 2002
Издатель (лейбл): Saison Russe (Le Chant du Monde & harmonia mundi)
Номер по каталогу: RUS 288175
Дата записи: январь 2001 г., Москва.
Аудиокодек: FLAC
Тип рипа: image+.cue
Битрейт аудио: lossless
Продолжительность: 00:51:03
Источник: odeonmusic
Наличие сканов в содержимом раздачи: да
Треклист:
Николай Андреевич Римский-Корсаков (1844 — 1908).
01. «Стих об Алексее Божием человеке» для хора (ATB) с оркестром, op. 20 (1878) [05:41].
02. «Песнь о вещем Олеге», кантата для солистов (TB), мужского хора и оркестра на слова А.С. Пушкина, op. 58 (1899) [17:09].
«Из Гомера», прелюдия-кантата для оркестра, солистов (SMC) и женского хора на слова в переводе В.А. Жуковского, op. 60 (1901).
03. Allegro tempestuoso. — Larghetto [11:42].
04. «Свитезянка», кантата для солистов (ST), смешанного хора и оркестра на слова А. Мицкевича въ переводе Л.А. Мея, op. 44 (1897) [16:25].
Исполнители:
Татьяна Федотова (сопрано, 3),
Елена Митракова (сопрано, 4),
Светлана Сизова (меццо-сопрано, 3),
Светлана Лухманова (контральто, 3),
Дмитрий Корчак (тенор, 2, 4),
Николай Диденко (бас, 2).
Академия хорового искусства [им. В.С. Попова].
Хормейстер Виктор Попов.
Московский симфонический оркестр.
Дирижер Владимир Зива.

Лог создания рипа

Exact Audio Copy V1.0 beta 3 from 29. August 2011
EAC extraction logfile from 9. March 2013, 22:29
Vladimir Ziva / Rimsky-Korsakov - Cantates profanes - Vladimir Ziva
Used drive : TSSTcorpCDDVDW SH-222BB Adapter: 2 ID: 1
Read mode : SecureUtilize accurate stream : YesDefeat audio cache : YesMake use of C2 pointers : No
Read offset correction : 6Overread into Lead-In and Lead-Out : NoFill up missing offset samples with silence : YesDelete leading and trailing silent blocks : NoNull samples used in CRC calculations : YesUsed interface : Native Win32 interface for Win NT & 2000
Used output format : User Defined EncoderSelected bitrate : 1024 kBit/sQuality : HighAdd ID3 tag : NoCommand line compressor : C:\Program Files\Exact Audio Copy\Flac\flac.exeAdditional command line options : -8 -V -T "TITLE=%title%" -T "ARTIST=%artist%" -T "ALBUMARTIST=%albumartist%" -T "ALBUM=%albumtitle%" -T "DATE=%year%" -T "TRACKNUMBER=%tracknr%" -T "TRACKTOTAL=%numtracks%" -T "GENRE=%genre%" -T "COMMENT=%comment%" -T "PERFORMER=%albuminterpret%" -T "COMPOSER=%composer%" %source% -o %dest%
TOC of the extracted CD
Track | Start | Length | Start sector | End sector --------------------------------------------------------- 1 | 0:00.00 | 5:42.37 | 0 | 25686 2 | 5:42.37 | 17:11.17 | 25687 | 103028 3 | 22:53.54 | 11:42.43 | 103029 | 155721 4 | 34:36.22 | 16:25.37 | 155722 | 229633
Range status and errors
Selected range
Filename G:\Ripped general\[4093] Rimsky-Korsakov – Cantates profanes – Vladimir Ziva\Rimsky-Korsakov - Cantates profanes - Vladimir Ziva.wav
Peak level 100.0 % Extraction speed 7.0 X Range quality 100.0 % Test CRC B4CD8537 Copy CRC B4CD8537 Copy OK
No errors occurred
AccurateRip summary
Track 1 accurately ripped (confidence 2) [74DBCBFE] (AR v1)Track 2 accurately ripped (confidence 2) [7A0566EB] (AR v1)Track 3 accurately ripped (confidence 2) [835ACF2F] (AR v1)Track 4 accurately ripped (confidence 2) [C4B4EF03] (AR v1)
All tracks accurately ripped
End of status report

Содержание индексной карты (.CUE)

REM GENRE ClassicalREM DATE 2002REM DISCID 2E0BF504REM COMMENT "ExactAudioCopy v1.0b3"PERFORMER "Victor Popov & Vladimir Ziva"TITLE "Rimsky-Korsakov – Secular Cantatas – Vladimir Ziva"FILE "Rimsky-Korsakov – Secular Cantatas – Vladimir Ziva.flac" WAVE TRACK 01 AUDIO TITLE "The Song of Alexis, Man of God, Op. 20 (1878)" PERFORMER "Victor Popov & Vladimir Ziva" INDEX 01 00:00:00 TRACK 02 AUDIO TITLE "The Song of Oleg the Wise, Op. 58 (1899)" PERFORMER "Victor Popov & Vladimir Ziva" INDEX 00 05:41:11 INDEX 01 05:42:37 TRACK 03 AUDIO TITLE "A Page from Homer, Op. 60 (1901)" PERFORMER "Victor Popov & Vladimir Ziva" FLAGS DCP INDEX 00 22:52:22 INDEX 01 22:53:54 TRACK 04 AUDIO TITLE "Switezianka (The Mermaid of Lake Switez), Op. 44 (1897)" PERFORMER "Victor Popov & Vladimir Ziva" INDEX 01 34:36:22
[teatrix.ru].t7914.torrent 
Торрент: Зарегистрирован [ 2015-10-14 02:42 ] · 2B457923FFE11195F56669FA90BE5F7386AC48EA

Скачать .torrent

Скачать

20 KB

Статус: проверено
Скачан: 0 раз
Размер: 243 MB
terms.php



Быстрый ответ

Имя:

      
Для отправки сообщений необходимо включить JavaScript
Показать сообщения:    

Текущее время: 09-Дек 06:50

Часовой пояс: UTC + 3


Вы можете начинать темы
Вы можете отвечать на сообщения
Вы не можете редактировать свои сообщения
Вы не можете удалять свои сообщения
Вы не можете голосовать в опросах
Вы не можете прикреплять файлы к сообщениям
Вы можете скачивать файлы