(Classical, sacred) Bartlomiej Pekiel - Ave Maria; Missa Concertata \'La Lombardesca\'; Audite mortales - The Sixteen, Eamonn Dougan - 2013, FLAC (image+.cue) lossless


Статистика раздачи [Обновить пиров]
Размер:  303 MB   |    Зарегистрирован:  1 год 1 месяц   |    Скачан:  0 раз

Полного источника не было: Никогда

 
   
 
 
 

[Цитировать]

Bartłomiej Pękiel - Ave Maria; Missa Concertata 'La Lombardesca'; Audite mortales - The Sixteen, Eamonn Dougan
Жанр: Classical, sacred
Год издания диска: 2013
Издатель (лейбл): Coro
Номер по каталогу: COR16110
Дата записи: 2012
Аудиокодек: FLAC
Тип рипа: image+.cue
Битрейт аудио: lossless
Продолжительность: 65:59
Источник: собственный рип
Наличие сканов в содержимом раздачи: да
Треклист:
Bartłomiej Pękiel (fl.1633-1670)
Missa a14
[1] Kyrie
[2] Gloria
[3] Resonet in laudibus
[4] Dulcis amor Jesu
[5] Magnum nomen Domini
[6] Audite mortales
[7] O adoranda Trinitas
[8] Nativitas tua
Missa Concertata La Lombardesca
[9] Kyrie
[10] Gloria
[11] Assumpta est Maria
Missa Concertata La Lombardesca
[12] Credo
[13] Ave Maria
Missa Concertata La Lombardesca
[14] Sanctus
[15] Benedictus
[16] Agnus Dei
Исполнители:
The Sixteen
Eamonn Dougan

Лог создания рипа

Exact Audio Copy V1.0 beta 3 from 29. August 2011
EAC extraction logfile from 10. July 2014, 23:28
The Sixteen, Eamonn Dougan / Pekiel - Ave Maria; Missa Concertata
Used drive : HL-DT-STDVDRAM GSA-4083N Adapter: 1 ID: 0
Read mode : SecureUtilize accurate stream : YesDefeat audio cache : YesMake use of C2 pointers : No
Read offset correction : 667Overread into Lead-In and Lead-Out : NoFill up missing offset samples with silence : YesDelete leading and trailing silent blocks : NoNull samples used in CRC calculations : YesUsed interface : Native Win32 interface for Win NT & 2000
Used output format : User Defined EncoderSelected bitrate : 896 kBit/sQuality : HighAdd ID3 tag : NoCommand line compressor : C:\Program Files\Exact Audio Copy\Flac\flac.exeAdditional command line options : -V -8 %source%
TOC of the extracted CD
Track | Start | Length | Start sector | End sector --------------------------------------------------------- 1 | 0:00.00 | 3:20.33 | 0 | 15032 2 | 3:20.33 | 3:48.28 | 15033 | 32160 3 | 7:08.61 | 1:49.65 | 32161 | 40400 4 | 8:58.51 | 6:28.22 | 40401 | 69522 5 | 15:26.73 | 1:49.00 | 69523 | 77697 6 | 17:15.73 | 12:55.38 | 77698 | 135860 7 | 30:11.36 | 2:53.67 | 135861 | 148902 8 | 33:05.28 | 4:04.68 | 148903 | 167270 9 | 37:10.21 | 3:10.73 | 167271 | 181593 10 | 40:21.19 | 5:01.07 | 181594 | 204175 11 | 45:22.26 | 2:39.60 | 204176 | 216160 12 | 48:02.11 | 9:23.23 | 216161 | 258408 13 | 57:25.34 | 3:19.37 | 258409 | 273370 14 | 60:44.71 | 1:36.66 | 273371 | 280636 15 | 62:21.62 | 1:35.23 | 280637 | 287784 16 | 63:57.10 | 1:51.74 | 287785 | 296183
Range status and errors
Selected range
Filename J:\New Music\Pekiel - Ave Maria; Missa Concertata\Pekiel - Ave Maria; Missa Concertata.wav
Peak level 80.0 % Extraction speed 3.5 X Range quality 100.0 % Test CRC ADA2EAF5 Copy CRC ADA2EAF5 Copy OK
No errors occurred
AccurateRip summary
Track 1 accurately ripped (confidence 2) [9117A0F8] (AR v2)Track 2 accurately ripped (confidence 2) [E9859DCC] (AR v2)Track 3 accurately ripped (confidence 2) [0A110082] (AR v2)Track 4 accurately ripped (confidence 2) [B0E71A6E] (AR v2)Track 5 accurately ripped (confidence 2) [47517C6B] (AR v2)Track 6 accurately ripped (confidence 2) [C59DB208] (AR v2)Track 7 accurately ripped (confidence 2) [A7A6A803] (AR v2)Track 8 accurately ripped (confidence 2) [1E912A69] (AR v2)Track 9 accurately ripped (confidence 2) [0A06A8ED] (AR v2)Track 10 accurately ripped (confidence 2) [0D74DBE4] (AR v2)Track 11 accurately ripped (confidence 2) [4E4E0B54] (AR v2)Track 12 accurately ripped (confidence 2) [E45AB828] (AR v2)Track 13 accurately ripped (confidence 2) [979569F2] (AR v2)Track 14 accurately ripped (confidence 2) [3F7E222C] (AR v2)Track 15 accurately ripped (confidence 2) [756798E8] (AR v2)Track 16 accurately ripped (confidence 2) [1DBAA559] (AR v2)
All tracks accurately ripped
End of status report
==== Log checksum B9FAF035C7438735E5DD4512A69CC463C8AC5237B114EC5539792D8F01B5B13B ====
[teatrix.ru].t7915.torrent 
Торрент: Зарегистрирован [ 2015-10-14 02:42 ] · CD7D64739923FDF9EFFCD4679BF4A9F15DF45943

Скачать .torrent

Скачать

25 KB

Статус: проверено
Скачан: 0 раз
Размер: 303 MB
terms.php



Быстрый ответ

Имя:

      
Для отправки сообщений необходимо включить JavaScript
Показать сообщения:    

Текущее время: 11-Дек 03:17

Часовой пояс: UTC + 3


Вы можете начинать темы
Вы можете отвечать на сообщения
Вы не можете редактировать свои сообщения
Вы не можете удалять свои сообщения
Вы не можете голосовать в опросах
Вы не можете прикреплять файлы к сообщениям
Вы можете скачивать файлы