(Choral, Film music) Leonard Bernstein - Chichester Psalms, On the Waterfront, On the Town (Bournemouth Symphony Chorus & Orchestra, Marin Alsop) - 2003, FLAC (image+.cue) lossless


Статистика раздачи [Обновить пиров]
Размер:  189 MB   |    Зарегистрирован:  1 год 1 месяц   |    Скачан:  0 раз

Полного источника не было: Никогда

 
   
 
 
 

[Цитировать]

Leonard Bernstein - Chichester Psalms, On the Waterfront, On the Town
Bournemouth Symphony Chorus & Orchestra, Marin Alsop
Жанр: Choral, Film music
Страна-производитель диска: EC
Год издания диска: 2003
Издатель (лейбл): Naxos
Номер по каталогу: 8.559177
Дата записи: 2003
Аудиокодек: FLAC
Тип рипа: image+.cue
Битрейт аудио: lossless
Продолжительность: 48:34
Источник: собственный рип
Наличие сканов в содержимом раздачи: да
Треклист:
1 On The Waterfront (Symphonic Suite From The Film) 19:35
Chichester Psalms
2 Psalm 108 Vs. 2, Psalm 100 3:39
3 Psalm 23, Psalm 2 Vs. 1-4 6:07
4 Psalm 131, Psalm 133 Vs. 1 8:33
On The Town (Three Dance Episodes)
5 The Great Lover 1:59
6 Lonely Town: Pas De Deux 3:28
7 Times Square: 1944 5:09
Исполнители:
Bournemouth Symphony Chorus & Orchestra
Marin Alsop - conductor

Лог создания рипа

Exact Audio Copy V1.0 beta 3 from 29. August 2011
EAC extraction logfile from 17. July 2014, 19:42
Marin Alsop cond. Bournemouth SO - Leonard Bernstein / Chichester Psalms
Used drive : TSSTcorp CDDVDW Adapter: 0 ID: 0
Read mode : SecureUtilize accurate stream : YesDefeat audio cache : YesMake use of C2 pointers : No
Read offset correction : 6Overread into Lead-In and Lead-Out : NoFill up missing offset samples with silence : YesDelete leading and trailing silent blocks : NoNull samples used in CRC calculations : YesUsed interface : Installed external ASPI interface
Used output format : User Defined EncoderSelected bitrate : 768 kBit/sQuality : HighAdd ID3 tag : NoCommand line compressor : C:\Program Files (x86)\Exact Audio Copy\FLAC\FLAC.EXEAdditional command line options : -6 -V -T "ARTIST=%artist%" -T "TITLE=%title%" -T "ALBUM=%albumtitle%" -T "DATE=%year%" -T "TRACKNUMBER=%tracknr%" -T "GENRE=%genre%" -T "COMMENT=%comment%" -T "BAND=%albuminterpret%" -T "ALBUMARTIST=%albuminterpret%" -T "COMPOSER=%composer%" %haslyrics%--tag-from-file=LYRICS="%lyricsfile%"%haslyrics% -T "DISCNUMBER=%cdnumber%" -T "TOTALDISCS=%totalcds%" -T "TOTALTRACKS=%numtracks%" %hascover%--picture="%coverfile%"%hascover% %source% -o %dest%
TOC of the extracted CD
Track | Start | Length | Start sector | End sector --------------------------------------------------------- 1 | 0:00.00 | 19:35.10 | 0 | 88134 2 | 19:35.10 | 3:39.37 | 88135 | 104596 3 | 23:14.47 | 6:07.63 | 104597 | 132184 4 | 29:22.35 | 8:33.70 | 132185 | 170729 5 | 37:56.30 | 1:59.20 | 170730 | 179674 6 | 39:55.50 | 3:28.32 | 179675 | 195306 7 | 43:24.07 | 5:09.70 | 195307 | 218551
Range status and errors
Selected range
Filename C:\RIP\Bernstein - Chichester Psalms (Alsop).wav
Peak level 99.9 % Extraction speed 2.9 X Range quality 100.0 % Test CRC 32654345 Copy CRC 32654345 Copy OK
No errors occurred
AccurateRip summary
Track 1 accurately ripped (confidence 27) [7139884F] (AR v2)Track 2 accurately ripped (confidence 27) [22E4F2E9] (AR v2)Track 3 accurately ripped (confidence 27) [C3AAEB3B] (AR v2)Track 4 accurately ripped (confidence 27) [386F2168] (AR v2)Track 5 accurately ripped (confidence 27) [43BB02BA] (AR v2)Track 6 accurately ripped (confidence 27) [0ABFC4DF] (AR v2)Track 7 accurately ripped (confidence 27) [CB171698] (AR v2)
All tracks accurately ripped
End of status report
==== Log checksum 99C4C39DFA01A4E1F0BFB2FB8831DA7CFE013A2B8E200D24341100C7AB81B204 ====
[teatrix.ru].t7916.torrent 
Торрент: Зарегистрирован [ 2015-10-14 02:42 ] · 6D6D845654B2EF7663E50A7AD12CE0CE3ECF138F

Скачать .torrent

Скачать

16 KB

Статус: проверено
Скачан: 0 раз
Размер: 189 MB
terms.php



Быстрый ответ

Имя:

      
Для отправки сообщений необходимо включить JavaScript
Показать сообщения:    

Текущее время: 02-Дек 21:14

Часовой пояс: UTC + 3


Вы можете начинать темы
Вы можете отвечать на сообщения
Вы не можете редактировать свои сообщения
Вы не можете удалять свои сообщения
Вы не можете голосовать в опросах
Вы не можете прикреплять файлы к сообщениям
Вы можете скачивать файлы