(Sacred, Organ, choral) Thomas Tallis - Spem In Alium, Lamentations of Jeremiah, Church music (King\'s College Choir of Cambridge, St. John\'s College Choir, Willcocks, Guest, Cleobury) - 1997, FLAC (image+.cue) lossless


Статистика раздачи [Обновить пиров]
Размер:  568 MB   |    Зарегистрирован:  1 год 1 месяц   |    Скачан:  0 раз

Полного источника не было: Никогда

 
   
 
 
 

[Цитировать]

Thomas Tallis - Spem In Alium, Lamentations of Jeremiah etc.
King's College Choir of Cambridge, St. John's College Choir
Жанр: Sacred
Страна-производитель диска: Germany
Год издания диска: 1997
Издатель (лейбл): Decca
Номер по каталогу: 455 029-2
Дата записи: 1960-1989
Аудиокодек: FLAC
Тип рипа: image+.cue
Битрейт аудио: lossless
Продолжительность: 2:03:08
Источник: собственный рип
Наличие сканов в содержимом раздачи: да
Треклист:
CD1
1 Spem in Alium (also set as "Sing and glorify"), motet for 40 voices, P. 299 11:34
2 In manus tuas, motet for 5 voices, P. 202 2:10
3 In jejunio et fletu, motet for 5 voices, P. 198 5:16
4 Te lucis ante terminum (Procul recedant somnia) (I), motet for 5 voices, P. 214 1:39
5 Te lucis ante terminum (Procul recedant somnia) (II), motet for 5 voices, P. 215 2:08
6 Ecce tempus idoneum (I), for keyboard 4:11
7 Veni Redemptor gentium (I), for organ 2:46
8 O nata lux de lumine, motet (hymn) for 5 voices, P. 209 2:00
9 Salvator mundi (I) (also set as "Arise O Lord" and "With all our hearts"), motet for 5 voices, P. 216 3:02
10 Derelinquit impius, motet for 5 voices, P. 189 4:30
11 Videte miraculum, motet for 6 voices, P. 293 10:56
12 Lesson "Two parts in one" (also atrributed to J.Bull), for keyboard 4:33
13 Sancte Deus, motet (antiphon) for 4 voices, P. 98 5:55
CD 2
1 Lamentations (of Jeremiah), 1st lesson for 5 voices, P. 102 9:36
2 Lamentations (of Jeremiah), 2nd lesson for 5 voices, P. 110 15:01
3 Te Deum, for 5 voices 9:07
4 Jam lucis orto sidere, for keyboard 1:24
5 Clarifica me pater (I), for keyboard 0:58
6 Fantasy, for keyboard 2:14
7 Audivi vocem, motet for 4 voices, P. 90 4:20
8 Dum transisset Sabbatum, motet for 5 voices, P. 257 7:55
9 Honor, virtus et potestas, motet for 5 voices, P. 237 6:40
10 Loquebantur variis linguis, motet for 7 voices, P. 272 5:01
Исполнители:
King's College Choir of Cambridge CD1 & CD2 #1-2 (cond. David Willcocks, rec. 1965) | #8-10 (cond. Stephen Cleobury, rec. 1989)
St. John's College Choir, Cambridge CD2 #3-7 (cond. George Guest, rec. 1960)

Лог создания рипа

Лог создания рипа CD1

Exact Audio Copy V1.0 beta 3 from 29. August 2011
EAC extraction logfile from 1. August 2014, 21:56
The Choir of St.King's College / Spem In Alium 40-part Motet
Used drive : TSSTcorp CDDVDW Adapter: 0 ID: 0
Read mode : Secure
Utilize accurate stream : Yes
Defeat audio cache : Yes
Make use of C2 pointers : No
Read offset correction : 6
Overread into Lead-In and Lead-Out : No
Fill up missing offset samples with silence : Yes
Delete leading and trailing silent blocks : No
Null samples used in CRC calculations : Yes
Used interface : Installed external ASPI interface
Used output format : User Defined Encoder
Selected bitrate : 768 kBit/s
Quality : High
Add ID3 tag : No
Command line compressor : C:\Program Files (x86)\Exact Audio Copy\FLAC\FLAC.EXE
Additional command line options : -6 -V -T "ARTIST=%artist%" -T "TITLE=%title%" -T "ALBUM=%albumtitle%" -T "DATE=%year%" -T "TRACKNUMBER=%tracknr%" -T "GENRE=%genre%" -T "COMMENT=%comment%" -T "BAND=%albuminterpret%" -T "ALBUMARTIST=%albuminterpret%" -T "COMPOSER=%composer%" %haslyrics%--tag-from-file=LYRICS="%lyricsfile%"%haslyrics% -T "DISCNUMBER=%cdnumber%" -T "TOTALDISCS=%totalcds%" -T "TOTALTRACKS=%numtracks%" %hascover%--picture="%coverfile%"%hascover% %source% -o %dest%
TOC of the extracted CD
Track | Start | Length | Start sector | End sector
---------------------------------------------------------
1 | 0:00.33 | 11:34.25 | 33 | 52107
2 | 11:34.58 | 2:10.50 | 52108 | 61907
3 | 13:45.33 | 5:14.62 | 61908 | 85519
4 | 19:00.20 | 1:40.63 | 85520 | 93082
5 | 20:41.08 | 2:08.62 | 93083 | 102744
6 | 22:49.70 | 4:11.30 | 102745 | 121599
7 | 27:01.25 | 2:46.03 | 121600 | 134052
8 | 29:47.28 | 2:00.57 | 134053 | 143109
9 | 31:48.10 | 3:02.58 | 143110 | 156817
10 | 34:50.68 | 4:30.27 | 156818 | 177094
11 | 39:21.20 | 10:56.13 | 177095 | 226307
12 | 50:17.33 | 4:33.45 | 226308 | 246827
13 | 54:51.03 | 5:57.45 | 246828 | 273647
Range status and errors
Selected range
Filename C:\RIP\Tallis - Spem In Alium (Willcocks) CD1.wav
Peak level 99.0 %
Extraction speed 3.0 X
Range quality 100.0 %
Test CRC 2922F42D
Copy CRC 2922F42D
Copy OK
No errors occurred
AccurateRip summary
Track 1 accurately ripped (confidence 3) [0D431E2D] (AR v2)
Track 2 accurately ripped (confidence 3) [50D10221] (AR v2)
Track 3 accurately ripped (confidence 3) [2AF46409] (AR v2)
Track 4 accurately ripped (confidence 3) [6090D5AA] (AR v2)
Track 5 accurately ripped (confidence 3) [2D4EF9A7] (AR v2)
Track 6 accurately ripped (confidence 3) [68B2AFAF] (AR v2)
Track 7 accurately ripped (confidence 3) [1C15AA51] (AR v2)
Track 8 accurately ripped (confidence 3) [53202118] (AR v2)
Track 9 accurately ripped (confidence 3) [B652EC8D] (AR v2)
Track 10 accurately ripped (confidence 3) [8C0B2410] (AR v2)
Track 11 accurately ripped (confidence 3) [60F35A26] (AR v2)
Track 12 accurately ripped (confidence 3) [C3C1B4AB] (AR v2)
Track 13 accurately ripped (confidence 3) [08B33271] (AR v2)
All tracks accurately ripped
End of status report
==== Log checksum 8A06244B13686515C853150F47AAE561E9A7D45BEE5C5965701103EF946F2033 ====

Лог создания рипа CD2

Exact Audio Copy V1.0 beta 3 from 29. August 2011
EAC extraction logfile from 2. August 2014, 0:22
King's & St John's Colleges Choirs / Sacred Music CD2
Used drive : TSSTcorp CDDVDW Adapter: 0 ID: 0
Read mode : Secure
Utilize accurate stream : Yes
Defeat audio cache : Yes
Make use of C2 pointers : No
Read offset correction : 6
Overread into Lead-In and Lead-Out : No
Fill up missing offset samples with silence : Yes
Delete leading and trailing silent blocks : No
Null samples used in CRC calculations : Yes
Used interface : Installed external ASPI interface
Used output format : User Defined Encoder
Selected bitrate : 768 kBit/s
Quality : High
Add ID3 tag : No
Command line compressor : C:\Program Files (x86)\Exact Audio Copy\FLAC\FLAC.EXE
Additional command line options : -6 -V -T "ARTIST=%artist%" -T "TITLE=%title%" -T "ALBUM=%albumtitle%" -T "DATE=%year%" -T "TRACKNUMBER=%tracknr%" -T "GENRE=%genre%" -T "COMMENT=%comment%" -T "BAND=%albuminterpret%" -T "ALBUMARTIST=%albuminterpret%" -T "COMPOSER=%composer%" %haslyrics%--tag-from-file=LYRICS="%lyricsfile%"%haslyrics% -T "DISCNUMBER=%cdnumber%" -T "TOTALDISCS=%totalcds%" -T "TOTALTRACKS=%numtracks%" %hascover%--picture="%coverfile%"%hascover% %source% -o %dest%
TOC of the extracted CD
Track | Start | Length | Start sector | End sector
---------------------------------------------------------
1 | 0:00.32 | 9:36.13 | 32 | 43244
2 | 9:36.45 | 15:01.67 | 43245 | 110886
3 | 24:38.37 | 9:07.03 | 110887 | 151914
4 | 33:45.40 | 1:24.62 | 151915 | 158276
5 | 35:10.27 | 0:58.18 | 158277 | 162644
6 | 36:08.45 | 2:14.70 | 162645 | 172764
7 | 38:23.40 | 4:20.02 | 172765 | 192266
8 | 42:43.42 | 7:55.68 | 192267 | 227959
9 | 50:39.35 | 6:40.02 | 227960 | 257961
10 | 57:19.37 | 5:01.30 | 257962 | 280566
Range status and errors
Selected range
Filename C:\RIP\Tallis - Spem In Alium (Willcocks) CD2.wav
Peak level 99.6 %
Extraction speed 3.1 X
Range quality 100.0 %
Test CRC FF5BCF46
Copy CRC FF5BCF46
Copy OK
No errors occurred
AccurateRip summary
Track 1 accurately ripped (confidence 2) [2E39AC41] (AR v2)
Track 2 accurately ripped (confidence 2) [DA434E8F] (AR v2)
Track 3 accurately ripped (confidence 2) [1095AC72] (AR v2)
Track 4 accurately ripped (confidence 2) [F0120918] (AR v2)
Track 5 accurately ripped (confidence 2) [862EAA5C] (AR v2)
Track 6 accurately ripped (confidence 2) [106D4969] (AR v2)
Track 7 accurately ripped (confidence 2) [787F70C8] (AR v2)
Track 8 accurately ripped (confidence 2) [D6F1EDDD] (AR v2)
Track 9 accurately ripped (confidence 2) [3D1CB228] (AR v2)
Track 10 accurately ripped (confidence 2) [DA18E815] (AR v2)
All tracks accurately ripped
End of status report
==== Log checksum 9DB48F9CBD18C37BC29ABC9A90375F9D1E97C8AB762938AFF741EB29E956CA00 ====
[teatrix.ru].t7917.torrent 
Торрент: Зарегистрирован [ 2015-10-14 02:42 ] · 7660E27B868FADDD3C19171AD8D3BE33358A7CF1

Скачать .torrent

Скачать

13 KB

Статус: проверено
Скачан: 0 раз
Размер: 568 MB
terms.php



Быстрый ответ

Имя:

      
Для отправки сообщений необходимо включить JavaScript
Показать сообщения:    

Текущее время: 09-Дек 08:52

Часовой пояс: UTC + 3


Вы можете начинать темы
Вы можете отвечать на сообщения
Вы не можете редактировать свои сообщения
Вы не можете удалять свои сообщения
Вы не можете голосовать в опросах
Вы не можете прикреплять файлы к сообщениям
Вы можете скачивать файлы