(Classical) И. С. Бах - Страсти по Матфею / Johann Sebastian Bach - Matthew Passion - Mulroy, Brook, Hamilton, Osmond, Wilkinson, Gill, Bennett, Bannatyne-Scott; Dunedin Consort & Players, John Butt - 2008, FLAC (image+.cue) lossless


Статистика раздачи [Обновить пиров]
Размер:  736 MB   |    Зарегистрирован:  1 год 1 месяц   |    Скачан:  0 раз

Полного источника не было: Никогда

 
   
 
 
 

[Цитировать]

Johann Sebastian Bach - Matthew Passion - Mulroy, Brook, Hamilton, Osmond, Wilkinson, Gill, Bennett, Bannatyne-Scott; Dunedin Consort & Players, John Butt
Жанр: Classical
Страна-производитель диска: UK
Год издания диска: 2008
Издатель (лейбл): Linn Records
Номер по каталогу: CKD 313
Дата записи: 2007
Аудиокодек: FLAC
Тип рипа: image+.cue
Битрейт аудио: lossless
Продолжительность: 161:16
Источник: собственный рип
Наличие сканов в содержимом раздачи: да
Треклист:
Johann Sebastian Bach (1685-1750)
Matthew Passion (BWV 244)
Bach's last performing version, c.1742
CD1
[1]-[38] Part I
CD2
[1]-[34] Part II
CD3
[1]-[29] Part II continued
Исполнители:
Evangelist Nicholas Mulroy
Jesus Matthew Brook
Susan Hamilton soprano
Cecilia Osmond soprano
Clare Wilkinson alto
Annie Gill alto
Malcolm Bennett tenor
Brian Bannatyne-Scott bass
Dunedin Consort & Players
John Butt
director

Лог создания рипа: CD1

Exact Audio Copy V1.0 beta 3 from 29. August 2011
EAC extraction logfile from 11. August 2014, 1:03
Dunedin Consort & Players, John Butt / Bach - Matthew Passion - Part I
Used drive : HL-DT-STDVDRAM GU70N Adapter: 0 ID: 0
Read mode : SecureUtilize accurate stream : YesDefeat audio cache : YesMake use of C2 pointers : No
Read offset correction : 48Overread into Lead-In and Lead-Out : NoFill up missing offset samples with silence : YesDelete leading and trailing silent blocks : NoNull samples used in CRC calculations : YesUsed interface : Native Win32 interface for Win NT & 2000
Used output format : User Defined EncoderSelected bitrate : 128 kBit/sQuality : HighAdd ID3 tag : NoCommand line compressor : C:\Program Files (x86)\Exact Audio Copy\Flac\flac.exeAdditional command line options : -V -8 -T "Date=%year%" -T "Genre=%genre%" %source%
TOC of the extracted CD
Track | Start | Length | Start sector | End sector --------------------------------------------------------- 1 | 0:00.00 | 6:40.41 | 0 | 30040 2 | 6:40.41 | 0:40.53 | 30041 | 33093 3 | 7:21.19 | 0:46.10 | 33094 | 36553 4 | 8:07.29 | 0:22.59 | 36554 | 38262 5 | 8:30.13 | 0:14.37 | 38263 | 39349 6 | 8:44.50 | 0:31.06 | 39350 | 41680 7 | 9:15.56 | 0:30.19 | 41681 | 43949 8 | 9:46.00 | 1:22.73 | 43950 | 50172 9 | 11:08.73 | 0:52.71 | 50173 | 54143 10 | 12:01.69 | 4:14.07 | 54144 | 73200 11 | 16:16.01 | 0:36.72 | 73201 | 75972 12 | 16:52.73 | 4:40.47 | 75973 | 97019 13 | 21:33.45 | 0:14.09 | 97020 | 98078 14 | 21:47.54 | 0:23.47 | 98079 | 99850 15 | 22:11.26 | 1:16.15 | 99851 | 105565 16 | 23:27.41 | 0:11.59 | 105566 | 106449 17 | 23:39.25 | 0:12.49 | 106450 | 107398 18 | 23:51.74 | 0:49.32 | 107399 | 111105 19 | 24:41.31 | 3:07.64 | 111106 | 125194 20 | 27:49.20 | 1:09.72 | 125195 | 130441 21 | 28:59.17 | 3:09.19 | 130442 | 144635 22 | 32:08.36 | 1:06.32 | 144636 | 149617 23 | 33:14.68 | 1:00.38 | 149618 | 154155 24 | 34:15.31 | 0:59.71 | 154156 | 158651 25 | 35:15.27 | 0:54.50 | 158652 | 162751 26 | 36:10.02 | 1:39.36 | 162752 | 170212 27 | 37:49.38 | 1:53.32 | 170213 | 178719 28 | 39:42.70 | 4:47.59 | 178720 | 200303 29 | 44:30.54 | 0:44.59 | 200304 | 203662 30 | 45:15.38 | 0:57.23 | 203663 | 207960 31 | 46:12.61 | 4:25.52 | 207961 | 227887 32 | 50:38.38 | 1:20.12 | 227888 | 233899 33 | 51:58.50 | 1:08.31 | 233900 | 239030 34 | 53:07.06 | 2:14.17 | 239031 | 249097 35 | 55:21.23 | 3:31.74 | 249098 | 264996 36 | 58:53.22 | 1:03.70 | 264997 | 269791 37 | 59:57.17 | 1:59.16 | 269792 | 278732 38 | 61:56.33 | 5:43.09 | 278733 | 304466
Range status and errors
Selected range
Filename C:\temp\Bach - Matthew Passion - Dunedin Consort & Players, John Butt\Bach - Matthew Passion - CD1.wav
Peak level 98.7 % Extraction speed 2.3 X Range quality 100.0 % Test CRC B259930F Copy CRC B259930F Copy OK
No errors occurred
AccurateRip summary
Track 1 accurately ripped (confidence 20) [9B9693AA] (AR v2)Track 2 accurately ripped (confidence 21) [952E98B6] (AR v2)Track 3 accurately ripped (confidence 20) [A8DE969C] (AR v2)Track 4 accurately ripped (confidence 20) [DDF44DB2] (AR v2)Track 5 accurately ripped (confidence 21) [77560A5E] (AR v2)Track 6 accurately ripped (confidence 21) [E00CC408] (AR v2)Track 7 accurately ripped (confidence 21) [8B586D58] (AR v2)Track 8 accurately ripped (confidence 20) [8BDC8A04] (AR v2)Track 9 accurately ripped (confidence 21) [82E30426] (AR v2)Track 10 accurately ripped (confidence 20) [2A46C752] (AR v2)Track 11 accurately ripped (confidence 21) [5BE2E693] (AR v2)Track 12 accurately ripped (confidence 20) [856F2BE0] (AR v2)Track 13 accurately ripped (confidence 21) [DD1B9ACC] (AR v2)Track 14 accurately ripped (confidence 21) [BA0E7597] (AR v2)Track 15 accurately ripped (confidence 20) [4108EA87] (AR v2)Track 16 accurately ripped (confidence 21) [6F646B0D] (AR v2)Track 17 accurately ripped (confidence 20) [F8EA1372] (AR v2)Track 18 accurately ripped (confidence 20) [765119FA] (AR v2)Track 19 accurately ripped (confidence 20) [1B3D9527] (AR v2)Track 20 accurately ripped (confidence 21) [628CA51B] (AR v2)Track 21 accurately ripped (confidence 21) [564361E4] (AR v2)Track 22 accurately ripped (confidence 20) [CD3D5740] (AR v2)Track 23 accurately ripped (confidence 20) [A7556402] (AR v2)Track 24 accurately ripped (confidence 21) [28C41A29] (AR v2)Track 25 accurately ripped (confidence 20) [F58E9BBC] (AR v2)Track 26 accurately ripped (confidence 20) [4EAE0EB1] (AR v2)Track 27 accurately ripped (confidence 21) [3AC26D87] (AR v2)Track 28 accurately ripped (confidence 20) [3887C450] (AR v2)Track 29 accurately ripped (confidence 21) [193280EB] (AR v2)Track 30 accurately ripped (confidence 21) [CEA32995] (AR v2)Track 31 accurately ripped (confidence 20) [2BA63D97] (AR v2)Track 32 accurately ripped (confidence 20) [434A82B1] (AR v2)Track 33 accurately ripped (confidence 20) [5A6062CF] (AR v2)Track 34 accurately ripped (confidence 20) [643F4AE8] (AR v2)Track 35 accurately ripped (confidence 21) [14FC3740] (AR v2)Track 36 accurately ripped (confidence 21) [8B5BA30A] (AR v2)Track 37 accurately ripped (confidence 21) [21292ECA] (AR v2)Track 38 accurately ripped (confidence 21) [7A76EFC6] (AR v2)
All tracks accurately ripped
End of status report
==== Log checksum DC8691D30BD456153B8DCAC538B58F033DFE5623871909D81DA86E8DE536A0E7 ====

Лог создания рипа: CD2

Exact Audio Copy V1.0 beta 3 from 29. August 2011
EAC extraction logfile from 11. August 2014, 1:33
Dunedin Consort & Players, John Butt / Bach - Matthew Passion - Part II
Used drive : HL-DT-STDVDRAM GU70N Adapter: 0 ID: 0
Read mode : SecureUtilize accurate stream : YesDefeat audio cache : YesMake use of C2 pointers : No
Read offset correction : 48Overread into Lead-In and Lead-Out : NoFill up missing offset samples with silence : YesDelete leading and trailing silent blocks : NoNull samples used in CRC calculations : YesUsed interface : Native Win32 interface for Win NT & 2000
Used output format : User Defined EncoderSelected bitrate : 128 kBit/sQuality : HighAdd ID3 tag : NoCommand line compressor : C:\Program Files (x86)\Exact Audio Copy\Flac\flac.exeAdditional command line options : -V -8 -T "Date=%year%" -T "Genre=%genre%" %source%
TOC of the extracted CD
Track | Start | Length | Start sector | End sector --------------------------------------------------------- 1 | 0:00.00 | 4:02.04 | 0 | 18153 2 | 4:02.04 | 1:01.22 | 18154 | 22750 3 | 5:03.26 | 0:43.50 | 22751 | 26025 4 | 5:47.01 | 1:04.37 | 26026 | 30862 5 | 6:51.38 | 1:01.74 | 30863 | 35511 6 | 7:53.37 | 3:29.39 | 35512 | 51225 7 | 11:23.01 | 1:14.62 | 51226 | 56837 8 | 12:37.63 | 0:14.26 | 56838 | 57913 9 | 12:52.14 | 0:13.37 | 57914 | 58925 10 | 13:05.51 | 0:21.24 | 58926 | 60524 11 | 13:27.00 | 0:50.60 | 60525 | 64334 12 | 14:17.60 | 0:54.44 | 64335 | 68428 13 | 15:12.29 | 0:11.13 | 68429 | 69266 14 | 15:23.42 | 1:16.59 | 69267 | 75025 15 | 16:40.26 | 6:21.45 | 75026 | 103645 16 | 23:01.71 | 1:06.63 | 103646 | 108658 17 | 24:08.59 | 0:52.34 | 108659 | 112592 18 | 25:01.18 | 0:08.19 | 112593 | 113211 19 | 25:09.37 | 0:37.66 | 113212 | 116052 20 | 25:47.28 | 2:50.66 | 116053 | 128868 21 | 28:38.19 | 2:06.38 | 128869 | 138356 22 | 30:44.57 | 0:54.23 | 138357 | 142429 23 | 31:39.05 | 1:50.62 | 142430 | 150741 24 | 33:29.67 | 0:20.56 | 150742 | 152297 25 | 33:50.48 | 0:38.21 | 152298 | 155168 26 | 34:28.69 | 0:17.02 | 155169 | 156445 27 | 34:45.71 | 1:02.65 | 156446 | 161160 28 | 35:48.61 | 4:37.22 | 161161 | 181957 29 | 40:26.08 | 0:21.69 | 181958 | 183601 30 | 40:48.02 | 0:25.35 | 183602 | 185511 31 | 41:13.37 | 0:40.14 | 185512 | 188525 32 | 41:53.51 | 0:18.06 | 188526 | 189881 33 | 42:11.57 | 0:57.63 | 189882 | 194219 34 | 43:09.45 | 7:12.70 | 194220 | 226689
Range status and errors
Selected range
Filename C:\temp\Bach - Matthew Passion - Dunedin Consort & Players, John Butt\Bach - Matthew Passion - CD2.wav
Peak level 98.7 % Extraction speed 4.9 X Range quality 99.9 % Test CRC A5602624 Copy CRC A5602624 Copy OK
No errors occurred
AccurateRip summary
Track 1 accurately ripped (confidence 20) [6D2B2803] (AR v2)Track 2 accurately ripped (confidence 20) [50610DF5] (AR v2)Track 3 accurately ripped (confidence 20) [1AAD0A6A] (AR v2)Track 4 accurately ripped (confidence 20) [13D28BF2] (AR v2)Track 5 accurately ripped (confidence 20) [454120C5] (AR v2)Track 6 accurately ripped (confidence 21) [867FBCD1] (AR v2)Track 7 accurately ripped (confidence 20) [945D640E] (AR v2)Track 8 accurately ripped (confidence 21) [574BE3EC] (AR v2)Track 9 accurately ripped (confidence 21) [BD3D302F] (AR v2)Track 10 accurately ripped (confidence 20) [6C6632CE] (AR v2)Track 11 accurately ripped (confidence 20) [E12DEEB7] (AR v2)Track 12 accurately ripped (confidence 20) [A87AD0D8] (AR v2)Track 13 accurately ripped (confidence 21) [BE385636] (AR v2)Track 14 accurately ripped (confidence 20) [A1684A11] (AR v2)Track 15 accurately ripped (confidence 20) [FF87379A] (AR v2)Track 16 accurately ripped (confidence 21) [2A5AD40E] (AR v2)Track 17 accurately ripped (confidence 21) [94460D9B] (AR v2)Track 18 accurately ripped (confidence 21) [B3699E74] (AR v2)Track 19 accurately ripped (confidence 21) [81D8F818] (AR v2)Track 20 accurately ripped (confidence 21) [EBA371C7] (AR v2)Track 21 accurately ripped (confidence 21) [46D1E099] (AR v2)Track 22 accurately ripped (confidence 20) [2EDDE539] (AR v2)Track 23 accurately ripped (confidence 20) [6CD980A3] (AR v2)Track 24 accurately ripped (confidence 20) [4716C497] (AR v2)Track 25 accurately ripped (confidence 21) [73380938] (AR v2)Track 26 accurately ripped (confidence 21) [DDBE7D60] (AR v2)Track 27 accurately ripped (confidence 21) [F513FD22] (AR v2)Track 28 accurately ripped (confidence 21) [B6D9BB02] (AR v2)Track 29 accurately ripped (confidence 21) [692C60D0] (AR v2)Track 30 accurately ripped (confidence 20) [E657289F] (AR v2)Track 31 accurately ripped (confidence 21) [A139C874] (AR v2)Track 32 accurately ripped (confidence 21) [29482E1F] (AR v2)Track 33 accurately ripped (confidence 20) [46338CBF] (AR v2)Track 34 accurately ripped (confidence 20) [ABF758E0] (AR v2)
All tracks accurately ripped
End of status report
==== Log checksum EB597B6918456CC9ED495CCC7917BD74ACB5C4B99EDDB720CB92A8962661E91D ====

Лог создания рипа: CD3

Exact Audio Copy V1.0 beta 3 from 29. August 2011
EAC extraction logfile from 11. August 2014, 1:59
Dunedin Consort & Players, John Butt / Bach - Matthew Passion - Part II continued
Used drive : HL-DT-STDVDRAM GU70N Adapter: 0 ID: 0
Read mode : SecureUtilize accurate stream : YesDefeat audio cache : YesMake use of C2 pointers : No
Read offset correction : 48Overread into Lead-In and Lead-Out : NoFill up missing offset samples with silence : YesDelete leading and trailing silent blocks : NoNull samples used in CRC calculations : YesUsed interface : Native Win32 interface for Win NT & 2000
Used output format : User Defined EncoderSelected bitrate : 128 kBit/sQuality : HighAdd ID3 tag : NoCommand line compressor : C:\Program Files (x86)\Exact Audio Copy\Flac\flac.exeAdditional command line options : -V -8 -T "Date=%year%" -T "Genre=%genre%" %source%
TOC of the extracted CD
Track | Start | Length | Start sector | End sector --------------------------------------------------------- 1 | 0:00.00 | 0:38.28 | 0 | 2877 2 | 0:38.28 | 0:12.13 | 2878 | 3790 3 | 0:50.41 | 0:14.00 | 3791 | 4840 4 | 1:04.41 | 1:53.42 | 4841 | 13357 5 | 2:58.08 | 0:56.07 | 13358 | 17564 6 | 3:54.15 | 0:36.71 | 17565 | 20335 7 | 4:31.11 | 6:42.74 | 20336 | 50559 8 | 11:14.10 | 1:40.18 | 50560 | 58077 9 | 12:54.28 | 0:30.04 | 58078 | 60331 10 | 13:24.32 | 0:09.19 | 60332 | 61025 11 | 13:33.51 | 0:50.05 | 61026 | 64780 12 | 14:23.56 | 0:14.57 | 64781 | 65887 13 | 14:38.38 | 1:22.34 | 65888 | 72071 14 | 16:00.72 | 3:09.10 | 72072 | 86256 15 | 19:10.07 | 1:25.40 | 86257 | 92671 16 | 20:35.47 | 0:16.72 | 92672 | 93943 17 | 20:52.44 | 0:07.25 | 93944 | 94493 18 | 20:59.69 | 0:23.71 | 94494 | 96289 19 | 21:23.65 | 1:07.12 | 96290 | 101326 20 | 22:31.02 | 0:56.19 | 101327 | 105545 21 | 23:27.21 | 0:17.50 | 105546 | 106870 22 | 23:44.71 | 1:14.25 | 106871 | 112445 23 | 24:59.21 | 2:00.59 | 112446 | 121504 24 | 27:00.05 | 6:16.60 | 121505 | 149764 25 | 33:16.65 | 0:55.48 | 149765 | 153937 26 | 34:12.38 | 0:56.20 | 153938 | 158157 27 | 35:08.58 | 0:36.34 | 158158 | 160891 28 | 35:45.17 | 1:53.12 | 160892 | 169378 29 | 37:38.29 | 5:30.30 | 169379 | 194158
Range status and errors
Selected range
Filename C:\temp\Bach - Matthew Passion - Dunedin Consort & Players, John Butt\Bach - Matthew Passion - CD3.wav
Peak level 98.7 % Extraction speed 4.7 X Range quality 100.0 % Test CRC E0C1647B Copy CRC E0C1647B Copy OK
No errors occurred
AccurateRip summary
Track 1 accurately ripped (confidence 18) [C9776199] (AR v2)Track 2 accurately ripped (confidence 20) [BF30C4F5] (AR v2)Track 3 accurately ripped (confidence 20) [CA43F2F0] (AR v2)Track 4 accurately ripped (confidence 19) [3B6901DD] (AR v2)Track 5 accurately ripped (confidence 19) [14B3E33E] (AR v2)Track 6 accurately ripped (confidence 20) [C7314771] (AR v2)Track 7 accurately ripped (confidence 18) [5FDBF1B0] (AR v2)Track 8 accurately ripped (confidence 20) [26770786] (AR v2)Track 9 accurately ripped (confidence 19) [E1E0D4B0] (AR v2)Track 10 accurately ripped (confidence 20) [5DFD387C] (AR v2)Track 11 accurately ripped (confidence 20) [3ED2711A] (AR v2)Track 12 accurately ripped (confidence 20) [78CCD2E5] (AR v2)Track 13 accurately ripped (confidence 19) [72287847] (AR v2)Track 14 accurately ripped (confidence 19) [94CE7EF1] (AR v2)Track 15 accurately ripped (confidence 20) [7B3930BF] (AR v2)Track 16 accurately ripped (confidence 20) [2F394F48] (AR v2)Track 17 accurately ripped (confidence 20) [5058AE4B] (AR v2)Track 18 accurately ripped (confidence 20) [11C5BD5B] (AR v2)Track 19 accurately ripped (confidence 19) [7017382F] (AR v2)Track 20 accurately ripped (confidence 19) [2032C719] (AR v2)Track 21 accurately ripped (confidence 19) [ADFDBE5E] (AR v2)Track 22 accurately ripped (confidence 19) [9E2BAD50] (AR v2)Track 23 accurately ripped (confidence 19) [34F2C6FA] (AR v2)Track 24 accurately ripped (confidence 19) [54153A77] (AR v2)Track 25 accurately ripped (confidence 19) [63A81DAD] (AR v2)Track 26 accurately ripped (confidence 20) [B325FCE9] (AR v2)Track 27 accurately ripped (confidence 20) [AEDD5F58] (AR v2)Track 28 accurately ripped (confidence 19) [F9790304] (AR v2)Track 29 accurately ripped (confidence 19) [996CB374] (AR v2)
All tracks accurately ripped
End of status report
==== Log checksum DC346B2F5D4DD9A8CE19058FCA376EA2DB0CA4ED5D5A9F0F5C0C28102D7FF786 ====
[teatrix.ru].t7918.torrent 
Торрент: Зарегистрирован [ 2015-10-14 02:42 ] · 497C662C41BF85FE1F8D1378230E2CAAAD27C9AA

Скачать .torrent

Скачать

31 KB

Статус: проверено
Скачан: 0 раз
Размер: 736 MB
terms.php



Быстрый ответ

Имя:

      
Для отправки сообщений необходимо включить JavaScript
Показать сообщения:    

Текущее время: 03-Дек 12:39

Часовой пояс: UTC + 3


Вы можете начинать темы
Вы можете отвечать на сообщения
Вы не можете редактировать свои сообщения
Вы не можете удалять свои сообщения
Вы не можете голосовать в опросах
Вы не можете прикреплять файлы к сообщениям
Вы можете скачивать файлы