(Classical) George Frideric Handel - Esther - Blaze, Brook, Gilchrist, Hamilton, Hobbs, Lochhead, Mulroy; Dunedin Consort, John Butt - 2CD - 2012, FLAC (image+.cue) lossless


Статистика раздачи [Обновить пиров]
Размер:  466 MB   |    Зарегистрирован:  1 год 1 месяц   |    Скачан:  1 раз

Полного источника не было: 4 месяца 19 дней

 
   
 
 
 

[Цитировать]

George Frideric Handel - Esther - Blaze, Brook, Gilchrist, Hamilton, Hobbs, Lochhead, Mulroy; Dunedin Consort, John Butt
Жанр: Classical
Страна-производитель диска: UK
Год издания диска: 2012
Издатель (лейбл): Linn Records
Номер по каталогу: CKD 397
Дата записи: 2011
Аудиокодек: FLAC
Тип рипа: image+.cue
Битрейт аудио: lossless
Продолжительность: 99:42
Источник: собственный рип
Наличие сканов в содержимом раздачи: да
Треклист:
George Frideric Handel
Esther HWV 50a
First reconstructable version (Cannons), 1720
CD1
[1]-[17] Act I
[18]-[29] Act II
CD2
[1]-[8] Act III
Исполнители:
Habdonah – Assuerus James Gilchrist
Haman Matthew Brook
Officer – 2nd Israelite Ashley Turnell
1st Israelite Thomas Hobbs
Israelite Boy Electra Lochhead
Priest of the Israelites Robin Blaze
Esther Susan Hamilton
Mordecai Nicholas Mulroy
Dunedin Consort
John Butt

Лог создания рипа: CD1

[pre]Exact Audio Copy V1.0 beta 3 from 29. August 2011
EAC extraction logfile from 8. August 2014, 21:47
Dunedin Consort, John Butt / Handel - Esther - CD1
Used drive : HL-DT-STDVDRAM GU70N Adapter: 0 ID: 0
Read mode : Secure
Utilize accurate stream : Yes
Defeat audio cache : Yes
Make use of C2 pointers : No
Read offset correction : 48
Overread into Lead-In and Lead-Out : No
Fill up missing offset samples with silence : Yes
Delete leading and trailing silent blocks : No
Null samples used in CRC calculations : Yes
Used interface : Native Win32 interface for Win NT & 2000
Used output format : User Defined Encoder
Selected bitrate : 128 kBit/s
Quality : High
Add ID3 tag : No
Command line compressor : C:\Program Files (x86)\Exact Audio Copy\Flac\flac.exe
Additional command line options : -V -8 -T "Date=%year%" -T "Genre=%genre%" %source%
TOC of the extracted CD
Track | Start | Length | Start sector | End sector
---------------------------------------------------------
1 | 0:00.00 | 1:58.26 | 0 | 8875
2 | 1:58.26 | 2:35.49 | 8876 | 20549
3 | 4:34.00 | 2:26.52 | 20550 | 31551
4 | 7:00.52 | 0:41.43 | 31552 | 34669
5 | 7:42.20 | 1:59.37 | 34670 | 43631
6 | 9:41.57 | 0:07.11 | 43632 | 44167
7 | 9:48.68 | 1:51.11 | 44168 | 52503
8 | 11:40.04 | 0:16.16 | 52504 | 53719
9 | 11:56.20 | 4:21.30 | 53720 | 73324
10 | 16:17.50 | 1:24.26 | 73325 | 79650
11 | 17:42.01 | 0:16.26 | 79651 | 80876
12 | 17:58.27 | 5:38.09 | 80877 | 106235
13 | 23:36.36 | 1:24.05 | 106236 | 112540
14 | 25:00.41 | 1:05.23 | 112541 | 117438
15 | 26:05.64 | 1:52.12 | 117439 | 125850
16 | 27:58.01 | 7:42.08 | 125851 | 160508
17 | 35:40.09 | 2:09.34 | 160509 | 170217
18 | 37:49.43 | 1:02.48 | 170218 | 174915
19 | 38:52.16 | 4:25.03 | 174916 | 194793
20 | 43:17.19 | 0:13.23 | 194794 | 195791
21 | 43:30.42 | 2:50.13 | 195792 | 208554
22 | 46:20.55 | 1:27.27 | 208555 | 215106
23 | 47:48.07 | 1:09.41 | 215107 | 220322
24 | 48:57.48 | 2:46.08 | 220323 | 232780
25 | 51:43.56 | 7:18.36 | 232781 | 265666
26 | 59:02.17 | 0:19.50 | 265667 | 267141
27 | 59:21.67 | 3:08.74 | 267142 | 281315
28 | 62:30.66 | 0:15.66 | 281316 | 282506
29 | 62:46.57 | 2:42.59 | 282507 | 294715
Range status and errors
Selected range
Filename C:\temp\Handel - Esther - Dunedin Consort, Butt\Handel - Esther - CD1.wav
Peak level 71.5 %
Extraction speed 2.2 X
Range quality 99.9 %
Test CRC E2C5B376
Copy CRC E2C5B376
Copy OK
No errors occurred
AccurateRip summary
Track 1 accurately ripped (confidence 5) [92F2FD6A] (AR v2)
Track 2 accurately ripped (confidence 5) [2FBF2315] (AR v2)
Track 3 accurately ripped (confidence 5) [886AF7BC] (AR v2)
Track 4 accurately ripped (confidence 5) [5685D375] (AR v2)
Track 5 accurately ripped (confidence 5) [5CD815F7] (AR v2)
Track 6 accurately ripped (confidence 5) [439D1261] (AR v2)
Track 7 accurately ripped (confidence 5) [C29F74F4] (AR v2)
Track 8 accurately ripped (confidence 5) [86614602] (AR v2)
Track 9 accurately ripped (confidence 5) [C8DBA55E] (AR v2)
Track 10 accurately ripped (confidence 5) [32D82307] (AR v2)
Track 11 accurately ripped (confidence 5) [45723D9D] (AR v2)
Track 12 accurately ripped (confidence 5) [050E0BDA] (AR v2)
Track 13 accurately ripped (confidence 5) [0F39CF84] (AR v2)
Track 14 accurately ripped (confidence 5) [B45E9269] (AR v2)
Track 15 accurately ripped (confidence 5) [3821E32F] (AR v2)
Track 16 accurately ripped (confidence 5) [32F337B5] (AR v2)
Track 17 accurately ripped (confidence 5) [99263428] (AR v2)
Track 18 accurately ripped (confidence 5) [D7D6D30B] (AR v2)
Track 19 accurately ripped (confidence 5) [4777EE63] (AR v2)
Track 20 accurately ripped (confidence 5) [3E0EFFBA] (AR v2)
Track 21 accurately ripped (confidence 5) [D7E64A22] (AR v2)
Track 22 accurately ripped (confidence 5) [11FAF469] (AR v2)
Track 23 accurately ripped (confidence 5) [DB1E3316] (AR v2)
Track 24 accurately ripped (confidence 5) [893B2BA6] (AR v2)
Track 25 accurately ripped (confidence 5) [0640C50F] (AR v2)
Track 26 accurately ripped (confidence 5) [3DADE555] (AR v2)
Track 27 accurately ripped (confidence 5) [3668F255] (AR v2)
Track 28 accurately ripped (confidence 5) [949D3265] (AR v2)
Track 29 accurately ripped (confidence 5) [DA0E8B7F] (AR v2)
All tracks accurately ripped
End of status report
==== Log checksum 9D637FEC6A8F440E6FC7EABB64AB36722160302E2C11D73904DB544F510C76CE ====[pre]

Лог создания рипа: CD2

[pre]Exact Audio Copy V1.0 beta 3 from 29. August 2011
EAC extraction logfile from 9. August 2014, 0:01
Dunedin Consort, John Butt / Handel - Esther - CD2
Used drive : HL-DT-STDVDRAM GU70N Adapter: 0 ID: 0
Read mode : Secure
Utilize accurate stream : Yes
Defeat audio cache : Yes
Make use of C2 pointers : No
Read offset correction : 48
Overread into Lead-In and Lead-Out : No
Fill up missing offset samples with silence : Yes
Delete leading and trailing silent blocks : No
Null samples used in CRC calculations : Yes
Used interface : Native Win32 interface for Win NT & 2000
Used output format : User Defined Encoder
Selected bitrate : 128 kBit/s
Quality : High
Add ID3 tag : No
Command line compressor : C:\Program Files (x86)\Exact Audio Copy\Flac\flac.exe
Additional command line options : -V -8 -T "Date=%year%" -T "Genre=%genre%" %source%
TOC of the extracted CD
Track | Start | Length | Start sector | End sector
---------------------------------------------------------
1 | 0:00.00 | 1:57.73 | 0 | 8847
2 | 1:57.73 | 4:17.08 | 8848 | 28130
3 | 6:15.06 | 1:38.24 | 28131 | 35504
4 | 7:53.30 | 2:36.35 | 35505 | 47239
5 | 10:29.65 | 4:52.11 | 47240 | 69150
6 | 15:22.01 | 0:40.21 | 69151 | 72171
7 | 16:02.22 | 6:10.04 | 72172 | 99925
8 | 22:12.26 | 11:56.65 | 99926 | 153690
Range status and errors
Selected range
Filename C:\temp\Handel - Esther - Dunedin Consort, Butt\Handel - Esther - CD2.wav
Peak level 92.5 %
Extraction speed 1.9 X
Range quality 100.0 %
Test CRC 03AC5261
Copy CRC 03AC5261
Copy OK
No errors occurred
AccurateRip summary
Track 1 accurately ripped (confidence 5) [3BD7D6CA] (AR v2)
Track 2 accurately ripped (confidence 5) [1E999E98] (AR v2)
Track 3 accurately ripped (confidence 5) [A4DC4028] (AR v2)
Track 4 accurately ripped (confidence 5) [38E8C88F] (AR v2)
Track 5 accurately ripped (confidence 5) [BA56023D] (AR v2)
Track 6 accurately ripped (confidence 5) [A1ECF6CD] (AR v2)
Track 7 accurately ripped (confidence 5) [18BCAD08] (AR v2)
Track 8 accurately ripped (confidence 5) [325D3B48] (AR v2)
All tracks accurately ripped
End of status report
==== Log checksum 4482A5BEEA2380F66F10AD346C8C63529229528604111C0B6437FEC414B4862C ====[pre]
[teatrix.ru].t7919.torrent 
Торрент: Зарегистрирован [ 2015-10-14 02:42 ] · 14FFB4ED64A997CF07BF265DEED555A2010720C9

Скачать .torrent

Скачать

38 KB

Статус: проверено
Скачан: 1 раз
Размер: 466 MB
terms.php



Быстрый ответ

Имя:

      
Для отправки сообщений необходимо включить JavaScript
Показать сообщения:    

Текущее время: 10-Дек 23:30

Часовой пояс: UTC + 3


Вы можете начинать темы
Вы можете отвечать на сообщения
Вы не можете редактировать свои сообщения
Вы не можете удалять свои сообщения
Вы не можете голосовать в опросах
Вы не можете прикреплять файлы к сообщениям
Вы можете скачивать файлы