(Classical/Minimalism) Gavin Bryars - Hovdingar Hittast (Heroes meet), Music from the Faroe Islands: From Egil\'s Saga, The Company of the Blind & Trondur i Gotu - 2013, FLAC (image+.cue) lossless


Статистика раздачи [Обновить пиров]
Размер:  333 MB   |    Зарегистрирован:  1 год 1 месяц   |    Скачан:  0 раз

Полного источника не было: Никогда

 
   
 
 
 

[Цитировать]

Gavin Bryars - Hovdingar Hittast
Жанр: Classical/Minimalism
Страна-производитель диска: EU
Год издания диска: 2013
Издатель (лейбл): GB Records
Номер по каталогу: BCGBCD20
Аудиокодек: FLAC
Тип рипа: image+.cue
Битрейт аудио: lossless
Продолжительность: 1:06'35"
Источник: собственный рип
Наличие сканов в содержимом раздачи: да
Треклист:
From Egil's Saga (2004)
01. Prologue
02. 'Vestr fork of ver' (To Erik in York)
03. 'Mjok erum tregt' (Lament for my sons)
04. 'Attak got...'
05. 'Nu erum torvelt'
06. 'Hann aldrteig...'
07. 'Vals hefk vofur helsis...'
08. 'Nu erum torvelt' (Reprise)
Runi Brattaberg, bass
Eystanljod choir
Aldubaran Orchestra
Gavin Bryars

09. Hitt blinda lioio (The Company of the Blind) (2011)
Olavur Jakobsen, guitar
Agnar Lamhauge, double bass
Eystanljod choir
Leif Hansen

Trondur i Gotu (2010)
10. The Journey Prayer (St Brendan)
11. The Island of Birds (St Brendan)
12. 'I Foroyum budu menskir fyrr'
13. Trondur's Creed I
14. 'Shall I abandon' (St Brendan's Prayer)
15. 'Hevjid i homrum...'
16. 'Streyk Trondur saer um ennid...'
17. Trondur's Creed II
18. 'Trondur doydi...'
Eivor Palsdottir, soprano
Runi Brattaberg, bass
Eystanljod choir
Aldubaran Orchestra
Gavin Bryars

-

Лог создания рипа

Exact Audio Copy V1.0 beta 1 from 15. November 2010
EAC extraction logfile from 3. August 2014, 15:38
Gavin Bryars / Hovdingar Hittast
Used drive : Optiarc DVD RW AD-7203A Adapter: 4 ID: 1
Read mode : SecureUtilize accurate stream : YesDefeat audio cache : YesMake use of C2 pointers : No
Read offset correction : 48Overread into Lead-In and Lead-Out : NoFill up missing offset samples with silence : YesDelete leading and trailing silent blocks : NoNull samples used in CRC calculations : YesUsed interface : Native Win32 interface for Win NT & 2000
Used output format : User Defined EncoderSelected bitrate : 128 kBit/sQuality : HighAdd ID3 tag : NoCommand line compressor : C:\Program Files\FLAC\flac.exeAdditional command line options : -T "COMMENT=Ripped by GFox" -8 -V %s
TOC of the extracted CD
Track | Start | Length | Start sector | End sector --------------------------------------------------------- 1 | 0:00.00 | 4:09.20 | 0 | 18694 2 | 4:09.20 | 7:55.55 | 18695 | 54374 3 | 12:05.00 | 5:41.00 | 54375 | 79949 4 | 17:46.00 | 2:37.20 | 79950 | 91744 5 | 20:23.20 | 3:22.55 | 91745 | 106949 6 | 23:46.00 | 3:57.29 | 106950 | 124753 7 | 27:43.29 | 3:23.41 | 124754 | 140019 8 | 31:06.70 | 3:06.05 | 140020 | 153974 9 | 34:13.00 | 3:45.74 | 153975 | 170923 10 | 37:58.74 | 3:56.00 | 170924 | 188623 11 | 41:54.74 | 3:15.41 | 188624 | 203289 12 | 45:10.40 | 5:55.39 | 203290 | 229953 13 | 51:06.04 | 1:52.72 | 229954 | 238425 14 | 52:59.01 | 4:45.29 | 238426 | 259829 15 | 57:44.30 | 1:25.45 | 259830 | 266249 16 | 59:10.00 | 2:58.50 | 266250 | 279649 17 | 62:08.50 | 1:38.26 | 279650 | 287025 18 | 63:47.01 | 2:48.37 | 287026 | 299662
Range status and errors
Selected range
Filename D:\EAC\Gavin Bryars - Hovdingar Hittast.wav
Peak level 100.0 % Extraction speed 0.1 X Range quality 100.0 % Test CRC BA59419B Copy CRC BA59419B Copy OK
No errors occurred
AccurateRip summary
Track 1 not present in databaseTrack 2 not present in databaseTrack 3 not present in databaseTrack 4 not present in databaseTrack 5 not present in databaseTrack 6 not present in databaseTrack 7 not present in databaseTrack 8 not present in databaseTrack 9 not present in databaseTrack 10 not present in databaseTrack 11 not present in databaseTrack 12 not present in databaseTrack 13 not present in databaseTrack 14 not present in databaseTrack 15 not present in databaseTrack 16 not present in databaseTrack 17 not present in databaseTrack 18 not present in database
None of the tracks are present in the AccurateRip database
End of status report
==== Log checksum 9EAE100FE675C411100356A230538B2AAC1AD4B22D42B98E14ACEAEEAA2B34D6 ====
-Доп. информация: 'Музыка с Фарерских островов' - атмосферная подборка свежего хорового минимализма на тексты исландских саг от Гэвина Браярса.-
[teatrix.ru].t7920.torrent 
Торрент: Зарегистрирован [ 2015-10-14 02:42 ] · 0918F9A0BDECA19E0E56E2C868FEB9E0E3F3DC82

Скачать .torrent

Скачать

14 KB

Статус: проверено
Скачан: 0 раз
Размер: 333 MB
terms.php



Быстрый ответ

Имя:

      
Для отправки сообщений необходимо включить JavaScript
Показать сообщения:    

Текущее время: 07-Дек 21:23

Часовой пояс: UTC + 3


Вы можете начинать темы
Вы можете отвечать на сообщения
Вы не можете редактировать свои сообщения
Вы не можете удалять свои сообщения
Вы не можете голосовать в опросах
Вы не можете прикреплять файлы к сообщениям
Вы можете скачивать файлы