(Choral) Bach - Missae Breves - Redel, Winschermann, Giebel, Ameling, Litz, Prey, Finnila, Altmeyer, Reimer, German Bach Soloists, Pro Art Orchstra - 1992, Philips, APE (image+.cue) lossless


Статистика раздачи [Обновить пиров]
Размер:  590 MB   |    Зарегистрирован:  1 год 1 месяц   |    Скачан:  0 раз

Полного источника не было: Никогда

 
   
 
 
 

[Цитировать]

Johann Sebastian Bach
Missae Breves BWV 233-236
Kurt Redel
Helmut Winschermann
Жанр: Choral
Страна-производитель диска: USA
Год издания диска: 1992
Издатель (лейбл): Philips
Номер по каталогу: 432 494-2
Дата записи: 1965, 1969
Аудиокодек: APE
Тип рипа: image+.cue
Битрейт аудио: lossless
Продолжительность: 1.57.29
Источник: собственный рип
Наличие сканов в содержимом раздачи: да

ТреклистDISC 1

Missa in F, BWV 233
1. Kyrie
2. Gloria
3. Domine Deus
4. Qui Tollis Peccata Mundi
(Manfred Clement, Oboe d'amore)
5. Quoniam Tu Solus
(Eduard Melkus, violin)
6. Cum Sancto Spiritu
Missa in A, BWV 234
7. Kyrie
8. Gloria
9. Domine Deus
(Eduard Melkus, violin)
10. Qui tollis peccata mundi
11. Quoniam
12. Cum Sancto Spiritu

DISC 2

Missa in G minor, BWV 235
1. Kyrie
2. Gloria
3. Gratias
4. Domine Fili
5. Qui Tollis
(Helmut Winschermann, Oboe)
6. Cum Sancto Spiritu
Missa in G, BWV 236
7. Kyrie
8. Gloria
9. Gratias agimus
10. Domine Deus
11. Quoniam
(Helmut Winschermann, Oboe)
12. Cum Sancto Spiritu

ИсполнителиCD 1:

MISSA IN F, BWV 233, MISSA IN A, BWV 234
Agnes Giebel soprano ∙ Gisela Litz contralto
Hermann Prey bass-baritone
"PRO ARTE" Choir, Lausanne
Orchestra "PRO ARTE" of Munich
KURT REDEL

CD 2:

MISSA IN G MINOR, BWV 235, MISSA IN G, BWV 236
Elly Ameling soprano ∙ Birgit Finilla contralto
Theo Altmeyer tenor ∙ William Reimer bass
WESTPHALIAN SINGERS HERFORD
GERMAN BACH SOLOISTS

Helmut Winschermann oboe
HELMUT WINSCHERMANN

Отчёт EACDISC 1

Exact Audio Copy V1.0 beta 3 from 29. August 2011
EAC extraction logfile from 3. August 2014, 10:53
J.S. Bach / Missae Breves, CD 1
Used drive : PIONEER DVD-RW DVRTD11RS Adapter: 1 ID: 0
Read mode : SecureUtilize accurate stream : YesDefeat audio cache : YesMake use of C2 pointers : No
Read offset correction : 6Overread into Lead-In and Lead-Out : NoFill up missing offset samples with silence : YesDelete leading and trailing silent blocks : NoNull samples used in CRC calculations : YesUsed interface : Native Win32 interface for Win NT & 2000
Used output format : User Defined EncoderSelected bitrate : 128 kBit/sQuality : HighAdd ID3 tag : NoCommand line compressor : C:\Program Files\Monkey's Audio\MAC.exeAdditional command line options : %source% %dest% -c3000
TOC of the extracted CD
Track | Start | Length | Start sector | End sector --------------------------------------------------------- 1 | 0:00.33 | 4:12.00 | 33 | 18932 2 | 4:12.33 | 6:38.00 | 18933 | 48782 3 | 10:50.33 | 3:50.25 | 48783 | 66057 4 | 14:40.58 | 5:19.50 | 66058 | 90032 5 | 20:00.33 | 4:40.00 | 90033 | 111032 6 | 24:40.33 | 2:57.00 | 111033 | 124307 7 | 27:37.33 | 7:28.00 | 124308 | 157907 8 | 35:05.33 | 5:29.00 | 157908 | 182582 9 | 40:34.33 | 5:09.00 | 182583 | 205757 10 | 45:43.33 | 6:33.00 | 205758 | 235232 11 | 52:16.33 | 3:32.00 | 235233 | 251132 12 | 55:48.33 | 3:58.00 | 251133 | 268982
Range status and errors
Selected range
Filename C:\Documents and Settings\Администратор\Мои документы\CDImage.wav
Peak level 91.0 % Extraction speed 2.3 X Range quality 100.0 % Test CRC 475E59E4 Copy CRC 475E59E4 Copy OK
No errors occurred
AccurateRip summary
Track 1 not present in databaseTrack 2 not present in databaseTrack 3 not present in databaseTrack 4 not present in databaseTrack 5 not present in databaseTrack 6 not present in databaseTrack 7 not present in databaseTrack 8 not present in databaseTrack 9 not present in databaseTrack 10 not present in databaseTrack 11 not present in databaseTrack 12 not present in database
None of the tracks are present in the AccurateRip database
End of status report
---- CUETools DB Plugin V2.1.3
[CTDB TOCID: LEgbpxm9jbNH6oy3gnNEcJ1m0yI-] disk not present in database, Submit result: discs with pregaps not supported in this protocol version
==== Log checksum F341EE6DBF9AC19F01599C2475FE7B17D7A1F2C5DBF9670C10BA175EA4867A68 ====

DISC 2

Exact Audio Copy V1.0 beta 3 from 29. August 2011
EAC extraction logfile from 3. August 2014, 11:48
J.S. Bach / Missae Breves, CD 2
Used drive : PIONEER DVD-RW DVRTD11RS Adapter: 1 ID: 0
Read mode : SecureUtilize accurate stream : YesDefeat audio cache : YesMake use of C2 pointers : No
Read offset correction : 6Overread into Lead-In and Lead-Out : NoFill up missing offset samples with silence : YesDelete leading and trailing silent blocks : NoNull samples used in CRC calculations : YesUsed interface : Native Win32 interface for Win NT & 2000
Used output format : User Defined EncoderSelected bitrate : 128 kBit/sQuality : HighAdd ID3 tag : NoCommand line compressor : C:\Program Files\Monkey's Audio\MAC.exeAdditional command line options : %source% %dest% -c3000
TOC of the extracted CD
Track | Start | Length | Start sector | End sector --------------------------------------------------------- 1 | 0:00.33 | 6:49.00 | 33 | 30707 2 | 6:49.33 | 3:46.00 | 30708 | 47657 3 | 10:35.33 | 3:25.00 | 47658 | 63032 4 | 14:00.33 | 5:06.00 | 63033 | 85982 5 | 19:06.33 | 4:09.00 | 85983 | 104657 6 | 23:15.33 | 5:21.00 | 104658 | 128732 7 | 28:36.33 | 4:11.00 | 128733 | 147557 8 | 32:47.33 | 5:34.00 | 147558 | 172607 9 | 38:21.33 | 5:32.00 | 172608 | 197507 10 | 43:53.33 | 3:53.50 | 197508 | 215032 11 | 47:47.08 | 5:24.25 | 215033 | 239357 12 | 53:11.33 | 4:28.00 | 239358 | 259457
Range status and errors
Selected range
Filename C:\Documents and Settings\Администратор\Мои документы\CDImage.wav
Peak level 90.2 % Extraction speed 2.2 X Range quality 99.9 % Test CRC 23BB557F Copy CRC 23BB557F Copy OK
No errors occurred
AccurateRip summary
Track 1 not present in databaseTrack 2 not present in databaseTrack 3 not present in databaseTrack 4 not present in databaseTrack 5 not present in databaseTrack 6 not present in databaseTrack 7 not present in databaseTrack 8 not present in databaseTrack 9 not present in databaseTrack 10 not present in databaseTrack 11 not present in databaseTrack 12 not present in database
None of the tracks are present in the AccurateRip database
End of status report
---- CUETools DB Plugin V2.1.3
[CTDB TOCID: jN2StK7da5l6b3bb5VKpp59AX1U-] found, Submit result: discs with pregaps not supported in this protocol version[57cc2e42] (1/1) Differs in 0 samples @You can use CUETools to repair this rip.
==== Log checksum B99144275FAA325368EFE57A5ED7E9A45F0D1E55C33CCE4F5101AA97F3CB2B4B ====
[teatrix.ru].t7921.torrent 
Торрент: Зарегистрирован [ 2015-10-14 02:42 ] · E8BF6CF93C1A7D173772C5E9B03B2FB2D57AA4FD

Скачать .torrent

Скачать

13 KB

Статус: проверено
Скачан: 0 раз
Размер: 590 MB
terms.php



Быстрый ответ

Имя:

      
Для отправки сообщений необходимо включить JavaScript
Показать сообщения:    

Текущее время: 03-Дек 12:40

Часовой пояс: UTC + 3


Вы можете начинать темы
Вы можете отвечать на сообщения
Вы не можете редактировать свои сообщения
Вы не можете удалять свои сообщения
Вы не можете голосовать в опросах
Вы не можете прикреплять файлы к сообщениям
Вы можете скачивать файлы